[MINI-HD] Deep Blue Sea (1999) ฝูงมฤตยูใต้มหาสมุทร [1080p] [พากย์ไทย 5.1 + เสียงอังกฤษ DTS] [บรรยายไทย + อังกฤษ] [เสียงไทย + ซับไทย] [PANDAFILE]

0

โหลดหนัง Deep Blue Sea (1999) ฝูงมฤตยูใต้มหาสมุทร

Deep Blue Sea (1999) 1h 45min | Action, Adventure, Sci-Fi | 28 October 1999 (Germany) Summary: Searching for a cure to Alzheimer's disease, a group of scientists on an isolated research facility become the prey, as a trio of intelligent sharks fight back.
Countries: USA, MexicoLanguages: English, Spanish

เรื่องย่อ Deep Blue Sea (1999) ฝูงมฤตยูใต้มหาสมุทร

ทีมนักวิจัยในห้องทดลองลอยน้ำแอควาติก้า กำลังล้อเล่นกับพระเจ้า และบัดนี้ความน่าสะพรึงกลัวของวันล้างโลกมาถึงแล้ว การทดลองของ ดร.ซูซาน แม็คอเลสเตอร์ (Saffron Burrows) ที่ต้องการจะเพาะเนื้อเยื่อสมองมนุษย์ขึ้นมาใหม่ในการรักษาโรคความจำเสี่ยม หรือโรคอัลไซเมอร์ แต่การไปถึงเป้าหมาย เธอต้องฝ่าฝืนจรรยาบรรณในการถ่ายพันธุ์ดีเอ็นเอของฉลาม ท่ามกลางการไม่เห็นด้วยของลูกทีมของเธออย่าง คาร์เตอร์ เบล๊ค (Thomas Jane) ผู้ชำนาญเรื่องฉลาม แต่มีปูมหลังในอดีตที่ไม่ค่อยดีนัก..

ภายใต้การจับตามองของผู้สนับสนุนด้านการเงิน รัสเซล แฟร้งคลิน (Samuel L. Jackson ) ซูซานและทีมของเธอ ประสบความสำเร็จในการทดลอง ตัดแบ่งเนื้อเยื่อสมองจากฉลามมาโก้ที่ใหญ่ที่สุด แต่ความสำเร็จที่จะเปลี่ยนประวัติศาสตร์ทางการแพทย์ กลับต้องเปลี่ยนเป็นอันตรายสุดน่าสะพรึง เมื่อฉลามมาโก้หนึ่งในเครื่องจักรสังหารของธรรมชาติที่เร็วที่สุดและสมบูรณ์แบบที่สุด ซึ่งพวกมันได้รับการปลูกถ่ายเซลล์สมองทำให้กลายเป็นเครื่องจักรสังหารที่ปราดเปรื่องและสุดที่จะดุร้าย พวกมันได้เริ่มจากการทำร้ายทีมวิจัยคนหนึ่ง เหตุการณ์ยิ่งเลวร้ายเป็นทวีคูณเมื่อเกิดพายุขนาดใหญ่พัดเข้ามาที่ศูนย์ทดลองแอควาติก้า ทำให้ทุกคนไม่สามารถออกไปภายนอกได้ และยังต้องเผชิญหน้ากับโครตเพชรฆาตที่เห็นมนุษย์กลายเป็นหนึ่งในห้วงโซ่อาหารของมัน!!

เพียงแค่เสี้ยววินาทีต่อมา ฉลามร้ายได้ทำลายห้องทดลองจนพังไม่มีชิ้นดี พร้อมกับพายุโซนร้อนหมุนวนรอบๆแอควาติก้าที่กำลังจมลง บรรดานักวิทยาศาสตร์และลูกเรือพบว่า พวกเขากำลังถูกไล่ล่าจากฉลามสายพันธุ์ใหม่ที่น่ากลัว ที่สุด พวกเขาต้องต่อสู่กับปีศาจร้ายที่พวกเค้าเป็นผู้สร้าง มันขึ้นมา!!

Complete name : [MIN-HD]_Deep.Blue.Sea.1999.1080p.BluRay.DTS.x264.One2loadup.com.mkv
Format : Matroska
Format version : Version 4
File size : 3.99 GiB
Duration : 1 h 45 min
Overall bit rate : 5 436 kb/s
Movie name : [MIN-HD]_Deep.Blue.Sea.1999.1080p.BluRay.DTS.x264.One2loadup.com
Encoded date : UTC 2018-09-29 00:54:14 / UTC 2018-09-28T06:13:53Z
Writing application : mkvmerge v8.3.0 (‘Over the Horizon’) 64bit
Writing library : libebml v1.3.1 + libmatroska v1.4.2 / Lavf55.12.0

Video
ID : 1
Format : AVC
Format/Info : Advanced Video Codec
Format profile : [email protected]
Format settings : CABAC / 4 Ref Frames
Format settings, CABAC : Yes
Format settings, ReFrames : 4 frames
Codec ID : V_MPEG4/ISO/AVC
Duration : 1 h 45 min
Bit rate : 3 371 kb/s
Width : 1 920 pixels
Height : 800 pixels
Display aspect ratio : 2.40:1
Frame rate mode : Constant
Frame rate : 23.976 (24000/1001) FPS
Color space : YUV
Chroma subsampling : 4:2:0
Bit depth : 8 bits
Scan type : Progressive
Bits/(Pixel*Frame) : 0.092
Stream size : 2.47 GiB (62%)
Title : [MIN-HD]_Deep.Blue.Sea.1999.1080p.BluRay.DTS.x264.One2loadup.com
Writing library : x264 core 142 r2479 dd79a61
Encoding settings : cabac=1 / ref=1 / deblock=1:0:0 / analyse=0x1:0x111 / me=hex / subme=2 / psy=1 / psy_rd=1.00:0.00 / mixed_ref=0 / me_range=16 / chroma_me=1 / trellis=0 / 8x8dct=0 / cqm=0 / deadzone=21,11 / fast_pskip=1 / chroma_qp_offset=0 / threads=6 / lookahead_threads=2 / sliced_threads=0 / nr=0 / decimate=1 / interlaced=0 / bluray_compat=0 / constrained_intra=0 / bframes=3 / b_pyramid=2 / b_adapt=1 / b_bias=0 / direct=1 / weightb=1 / open_gop=0 / weightp=1 / keyint=240 / keyint_min=24 / scenecut=40 / intra_refresh=0 / rc_lookahead=10 / rc=crf / mbtree=1 / crf=23.0 / qcomp=0.60 / qpmin=0 / qpmax=69 / qpstep=4 / vbv_maxrate=20000 / vbv_bufsize=25000 / crf_max=0.0 / nal_hrd=none / filler=0 / ip_ratio=1.40 / aq=1:1.00
Language : Thai
Default : Yes
Forced : Yes
Color range : Limited
Color primaries : BT.709
Transfer characteristics : BT.709
Matrix coefficients : BT.709

Audio #1
ID : 2
Format : DTS
Format/Info : Digital Theater Systems
Codec ID : A_DTS
Duration : 1 h 45 min
Bit rate mode : Constant
Bit rate : 1 509 kb/s
Channel(s) : 6 channels
Channel layout : C L R Ls Rs LFE
Sampling rate : 48.0 kHz
Frame rate : 93.750 FPS (512 SPF)
Bit depth : 24 bits
Compression mode : Lossy
Stream size : 1.11 GiB (28%)
Title : Surround
Language : English
Default : No
Forced : No

Audio #2
ID : 3
Format : AC-3
Format/Info : Audio Coding 3
Commercial name : Dolby Digital
Codec ID : A_AC3
Duration : 1 h 45 min
Bit rate mode : Constant
Bit rate : 448 kb/s
Channel(s) : 6 channels
Channel layout : L R C LFE Ls Rs
Sampling rate : 48.0 kHz
Frame rate : 31.250 FPS (1536 SPF)
Bit depth : 16 bits
Compression mode : Lossy
Stream size : 336 MiB (8%)
Title : Surround
Language : Thai
Service kind : Complete Main
Default : Yes
Forced : Yes

Text #1
ID : 4
Format : PGS
Muxing mode : zlib
Codec ID : S_HDMV/PGS
Codec ID/Info : Picture based subtitle format used on BDs/HD-DVDs
Duration : 1 h 37 min
Language : English
Default : No
Forced : No

Text #2
ID : 5
Format : PGS
Muxing mode : zlib
Codec ID : S_HDMV/PGS
Codec ID/Info : Picture based subtitle format used on BDs/HD-DVDs
Duration : 1 h 37 min
Language : Thai
Default : No
Forced : Yes

Text #3
ID : 6
Format : PGS
Muxing mode : zlib
Codec ID : S_HDMV/PGS
Codec ID/Info : Picture based subtitle format used on BDs/HD-DVDs
Duration : 1 h 37 min
Language : Thai
Default : Yes
Forced : Yes

Menu
00:00:00.000 : :Chapter 1
00:03:53.751 : :Chapter 2
00:07:07.945 : :Chapter 3
00:10:46.747 : :Chapter 4
00:13:23.111 : :Chapter 5
00:15:16.808 : :Chapter 6
00:18:29.501 : :Chapter 7
00:23:19.248 : :Chapter 8
00:29:10.015 : :Chapter 9
00:33:35.906 : :Chapter 10
00:35:51.416 : :Chapter 11
00:38:29.449 : :Chapter 12
00:40:15.430 : :Chapter 13
00:43:01.054 : :Chapter 14
00:46:54.495 : :Chapter 15
00:50:58.614 : :Chapter 16
00:54:42.672 : :Chapter 17
00:57:23.833 : :Chapter 18
01:01:41.465 : :Chapter 19
01:04:24.044 : :Chapter 20
01:08:35.170 : :Chapter 21
01:12:09.968 : :Chapter 22
01:15:13.192 : :Chapter 23
01:16:08.915 : :Chapter 24
01:18:00.610 : :Chapter 25
01:19:55.850 : :Chapter 26
01:23:44.453 : :Chapter 27
01:26:14.603 : :Chapter 28
01:28:44.920 : :Chapter 29
01:31:18.198 : :Chapter 30
01:33:42.259 : :Chapter 31
01:35:30.867 : :Chapter 32
01:37:36.993 : :Chapter 33

DOWNLOAD


PART01 |||| PART02 |||| PART03 |||| PART04 |||| PART05

PART01 |||| PART02 |||| PART03 |||| PART04 |||| PART05

PART01 |||| PART02 |||| PART03 |||| PART04 |||| PART05

PART01 |||| PART02 |||| PART03 |||| PART04 |||| PART05

PART01 |||| PART02 |||| PART03 |||| PART04 |||| PART05


Leave A Reply

Your email address will not be published.

%d bloggers like this: