[MINI-HD] Curse of the Golden Flower (2006) ศึกโค่นบัลลังก์วังทอง [1080p] [พากย์ไทย DTS + เสียงจีน DTS] [บรรยายไทย + อังกฤษ] [เสียงไทย + ซับไทย] [PANDAFILE]

0

โหลดหนัง Curse of the Golden Flower (2006) ศึกโค่นบัลลังก์วังทอง

Curse of the Golden Flower (2006) 1h 54min | Action, Drama, History | 12 January 2007 (USA) Summary: During China's Tang dynasty the emperor has taken the princess of a neighboring province as wife. She has borne him two sons and raised his eldest. Now his control over his dominion is complete, including the royal family itself.
Countries: China, Hong KongLanguages: Mandarin

เรื่องย่อ Curse of the Golden Flower (2006) ศึกโค่นบัลลังก์วังทอง

ใน ค.ศ. 989 ในยุคราชวงศ์โฮ่วถัง คืนก่อนหน้าเทศกาลฉงหยาง (วันที่ 9 เดือน 9) ฮ่องเต้เสด็จกลับมาพร้อมกับองค์ชายรองเหยียนเจี๋ย พระองค์มีพระประสงค์จะร่วมเฉลิมฉลองกับพระญาติ แต่ความสัมพันธ์ที่ร้าวฉานระหว่างฮ่องเต้และฮองเฮาก็ทำให้ฮองเฮากับองค์รัชทายาทเหยียนเสียง พระโอรสเลี้ยงของพระนาง แอบลักลอบมีความสัมพันธ์กันมานานหลายปี ด้วยความรู้สึกอึดอัดองค์รัชทายาทเหยียนเสียง จึงได้คิดที่จะออกจากพระราชวังไปอยู่ชายแดนพร้อมกับเสี่ยวฉาน คนรักลับลับของพระองค์ซึ่งเป็นลูกสาวของหมอหลวงประจำราชสำนัก ในขณะเดียวกันองค์ชายรองเหยียนเจี๋ยพระโอรสผู้ซื่อสัตย์ที่ห่างจากพระราชวังไปนานถึง 3 ปี รู้สึกกังวลในสุขภาพของฮองเฮา ที่มักจะเกิดอาการกระตุกอย่างไม่ทราบสาเหตุอยู่บ่อย ๆ จนฮ่องเต้ต้องบังคับให้พระนางต้องเสวยยาทุก ๆ ชั่วยาม และความหมกมุ่นในการปักดอกเบญจมาศสีทองของพระนาง ที่พระนางให้ความสำคัญเป็นพิเศษ ฮ่องเต้เองก็ทรงมีแผนการลับในพระทัยอยู่ด้วยเช่นกัน หมอหลวงเป็นบุคคลเพียงผู้เดียวที่ได้รับรู้ถึงแผนร้ายของพระองค์ เมื่อฮ่องเต้ตระหนักถึงภัยคุกคามที่ใกล้เข้ามา พระองค์จึงรับสั่งให้หมอหลวงไปรับราชการยังสถานที่ห่างไกลขณะที่พวกเขาเดินทางอยู่นั้นเอง มือสังหารลึกลับได้ลอบโจมตีพวกเขาเสี่ยวฉานและเจียงฉี ผู้เป็นมารดาถูกบีบบังคับให้กลับไปในพระราชวัง การกลับมาของพวกเธอเป็นจุดเริ่มต้นของเหตุการณ์น่าประหลาดใจมากมายท่ามกลางความงดงามและเลิศหรูของเทศกาล ความลับที่ถูกปกปิดถูกเปิดเผยในขณะที่เหล่าเชื้อพระวงศ์กำลังเฉลิมฉลองงานเทศกาลนี้นักรบเกราะทองคำนับพันคนกำลังบุกเข้ามายังพระราชวัง ใครกันที่เป็นผู้อยู่เบื้องหลังการกบฏครั้งนี้ หรือดอกเบญจมาศที่เบ่งบานจะถูกย่ำยีเมื่อเลือดหลั่งนองทั่วพระราชวัง!!!

Complete name : [MINI-HD]_Curse.Of.The.Golden.Flower.2006.1080p.BluRay.DTS.x264.One2loadup.com.mkv
Format : Matroska
Format version : Version 4
File size : 2.92 GiB
Duration : 1 h 53 min
Overall bit rate : 3 661 kb/s
Movie name : [MINI-HD]_Curse.Of.The.Golden.Flower.2006.1080p.BluRay.DTS.x264.One2loadup.com
Encoded date : UTC 2020-04-22 07:39:02
Writing application : mkvmerge v45.0.0 (‘Heaven in Pennies’) 64-bit
Writing library : libebml v1.3.10 + libmatroska v1.5.2

Video
ID : 1
Format : AVC
Format/Info : Advanced Video Codec
Format profile : [email protected]
Format settings : CABAC / 4 Ref Frames
Format settings, CABAC : Yes
Format settings, ReFrames : 4 frames
Codec ID : V_MPEG4/ISO/AVC
Duration : 1 h 53 min
Bit rate : 2 150 kb/s
Width : 1 904 pixels
Height : 800 pixels
Display aspect ratio : 2.40:1
Frame rate mode : Constant
Frame rate : 23.976 (24000/1001) FPS
Color space : YUV
Chroma subsampling : 4:2:0
Bit depth : 8 bits
Scan type : Progressive
Bits/(Pixel*Frame) : 0.059
Stream size : 1.71 GiB (59%)
Title : [MINI-HD]_Curse.Of.The.Golden.Flower.2006.1080p.BluRay.DTS.x264.One2loadup.com
Writing library : x264 core 152
Encoding settings : cabac=1 / ref=4 / deblock=1:-1:-1 / analyse=0x3:0x133 / me=umh / subme=9 / psy=1 / psy_rd=1.00:0.15 / mixed_ref=1 / me_range=24 / chroma_me=1 / trellis=2 / 8x8dct=1 / cqm=0 / deadzone=21,11 / fast_pskip=0 / chroma_qp_offset=-3 / threads=12 / lookahead_threads=1 / sliced_threads=0 / nr=0 / decimate=1 / interlaced=0 / bluray_compat=0 / constrained_intra=0 / bframes=3 / b_pyramid=2 / b_adapt=2 / b_bias=0 / direct=3 / weightb=1 / open_gop=0 / weightp=2 / keyint=250 / keyint_min=23 / scenecut=40 / intra_refresh=0 / rc_lookahead=60 / rc=2pass / mbtree=1 / bitrate=2150 / ratetol=1.0 / qcomp=0.60 / qpmin=0 / qpmax=69 / qpstep=4 / cplxblur=20.0 / qblur=0.5 / vbv_maxrate=31250 / vbv_bufsize=31250 / nal_hrd=none / filler=0 / ip_ratio=1.40 / aq=1:1.00
Default : Yes
Forced : No

Audio #1
ID : 2
Format : DTS ES
Format/Info : Digital Theater Systems
Commercial name : DTS-ES Matrix
Codec ID : A_DTS
Duration : 1 h 53 min
Bit rate mode : Constant
Bit rate : 755 kb/s
Channel(s) : 6 channels
Channel(s)_Original : 7 channels
Channel layout : C L R Ls Rs Cb LFE
Sampling rate : 48.0 kHz
Frame rate : 93.750 FPS (512 SPF)
Bit depth : 16 bits
Compression mode : Lossy
Delay relative to video : -43 ms
Stream size : 615 MiB (21%)
Title : Chinese DTS 5.1
Language : Chinese
Default : No
Forced : No

Audio #2
ID : 3
Format : DTS
Format/Info : Digital Theater Systems
Codec ID : A_DTS
Duration : 1 h 53 min
Bit rate mode : Constant
Bit rate : 755 kb/s
Channel(s) : 6 channels
Channel layout : C L R Ls Rs LFE
Sampling rate : 48.0 kHz
Frame rate : 93.750 FPS (512 SPF)
Bit depth : 24 bits
Compression mode : Lossy
Delay relative to video : -43 ms
Stream size : 615 MiB (21%)
Title : Thai DTS 5.1
Language : Thai
Default : Yes
Forced : No

Text #1
ID : 4
Format : VobSub
Muxing mode : zlib
Codec ID : S_VOBSUB
Codec ID/Info : Picture based subtitle format used on DVDs
Duration : 1 h 51 min
Bit rate : 2 179 b/s
Count of elements : 888
Stream size : 1.73 MiB (0%)
Language : Thai
Default : Yes
Forced : No

Text #2
ID : 5
Format : UTF-8
Codec ID : S_TEXT/UTF8
Codec ID/Info : UTF-8 Plain Text
Duration : 1 h 51 min
Bit rate : 28 b/s
Count of elements : 758
Stream size : 23.0 KiB (0%)
Language : English
Default : No
Forced : No

DOWNLOAD


PART01 |||| PART02 |||| PART03

PART01 |||| PART02 |||| PART03

PART01 |||| PART02 |||| PART03

PART01 |||| PART02 |||| PART03

PART01 |||| PART02 |||| PART03



แจ้งหนังเสีย หรือโหลดไม่ได้ ทั้งลิ้งฟรีและ vip สามารถกดที่รูปด้านบนนี้ได้เลย

: Disable Comments
%d bloggers like this: