[MINI-HD] Children of the Sea (2019) รุกะผจญภัยโลกใต้ทะเล [1080p] [พากย์ไทย 5.1 + เสียงญี่ปุ่น 5.1] [บรรยายอังกฤษ + อิตาเลียน] [เสียงไทย + ซับไทย] [PANDAFILE]

0

โหลดหนัง Children of the Sea (2019) รุกะผจญภัยโลกใต้ทะเล

Children of the Sea (2019) 1h 51min | Animation, Adventure, Drama | 2019 (USA) Summary: A young girl is drawn into a mystery involving sealife around the world, in which two mysterious boys are somehow involved.
Countries: JapanLanguages: Japanese

เรื่องย่อ Children of the Sea (2019) รุกะผจญภัยโลกใต้ทะเล

รุกะ เด็กสาวมัธยมต้นที่ มีปัญหากับเพื่อนร่วมชมรมแฮนด์บอลตั้งแต่วันแรกของวันหยุดฤดูร้อนรุกะจึงไปที่อควาเรียมที่เป็นที่ทำงานของพ่อ ในขณะที่เธอกำลังยืนอยู่หน้าอควาเรียมขนาดใหญ่ที่เต็ มไปด้วยฝูงปลาเธอก็ได้พบกับพี่น้องปริศนาอุมิ และ โซระ “พวกเขาถูกเลี้ยงดูโดยฝูงพะยูน” พ่อของรุกะบอกเธอแบบนั้น รุกะ อุมิ และ โซระ มีความสามารถสื่อสารกับสิ่งมีชีวิตในทะเลได้ในเวลาเดียวกันก็มีอุกกาบาตตกลงมา และเกิดปรากฏการที่ปลาหายไปจากท้องทะเล ทั้งสามจึงร่วมมือกันออกผจญภัยไปในโลกใต้สมุทรเพื่อปกป้องเหล่าสัตว์น้ำจากมหันตภัย!!!

Complete name : [MINI-HD]_Children.of.the.Sea.2019.1080p.BrRip.AC3.x264.One2loadup.com.mkv
Format : Matroska
Format version : Version 4
File size : 4.24 GiB
Duration : 1 h 51 min
Overall bit rate : 5 452 kb/s
Movie name : [MINI-HD]_Children.of.the.Sea.2019.1080p.BrRip.AC3.x264.One2loadup.com
Encoded date : UTC 2020-07-16 12:32:41
Writing application : mkvmerge v47.0.0 (‘Black Flag’) 64-bit
Writing library : libebml v1.3.10 + libmatroska v1.5.2 / Lavf58.29.100
Cover : Yes
Attachments : cover.jpg

Video
ID : 1
Format : AVC
Format/Info : Advanced Video Codec
Format profile : [email protected]
Format settings : CABAC / 4 Ref Frames
Format settings, CABAC : Yes
Format settings, ReFrames : 4 frames
Codec ID : V_MPEG4/ISO/AVC
Duration : 1 h 51 min
Bit rate : 3 500 kb/s
Width : 1 916 pixels
Height : 816 pixels
Display aspect ratio : 2.35:1
Frame rate mode : Constant
Frame rate : 23.976 (24000/1001) FPS
Color space : YUV
Chroma subsampling : 4:2:0
Bit depth : 8 bits
Scan type : Progressive
Bits/(Pixel*Frame) : 0.093
Stream size : 2.70 GiB (64%)
Title : [MINI-HD]_Children.of.the.Sea.2019.1080p.BrRip.AC3.x264.One2loadup.com
Writing library : x264 core 157 r2935 545de2f
Encoding settings : cabac=1 / ref=2 / deblock=1:0:0 / analyse=0x1:0x111 / me=hex / subme=6 / psy=1 / psy_rd=1.00:0.00 / mixed_ref=1 / me_range=16 / chroma_me=1 / trellis=1 / 8x8dct=0 / cqm=0 / deadzone=21,11 / fast_pskip=1 / chroma_qp_offset=-2 / threads=18 / lookahead_threads=3 / sliced_threads=0 / nr=0 / decimate=1 / interlaced=0 / bluray_compat=0 / constrained_intra=0 / bframes=3 / b_pyramid=2 / b_adapt=1 / b_bias=0 / direct=1 / weightb=1 / open_gop=0 / weightp=1 / keyint=240 / keyint_min=24 / scenecut=40 / intra_refresh=0 / rc_lookahead=30 / rc=abr / mbtree=1 / bitrate=3500 / ratetol=1.0 / qcomp=0.60 / qpmin=0 / qpmax=69 / qpstep=4 / vbv_maxrate=50000 / vbv_bufsize=62500 / nal_hrd=none / filler=0 / ip_ratio=1.40 / aq=1:1.00
Default : Yes
Forced : No
Color range : Limited
Color primaries : BT.709
Transfer characteristics : BT.709
Matrix coefficients : BT.709

Audio #1
ID : 2
Format : AC-3
Format/Info : Audio Coding 3
Commercial name : Dolby Digital
Codec ID : A_AC3
Duration : 1 h 51 min
Bit rate mode : Constant
Bit rate : 448 kb/s
Channel(s) : 6 channels
Channel layout : L R C LFE Ls Rs
Sampling rate : 44.1 kHz
Frame rate : 28.711 FPS (1536 SPF)
Bit depth : 16 bits
Compression mode : Lossy
Delay relative to video : -5 ms
Stream size : 356 MiB (8%)
Title : Thai AC-3 (5.1)
Language : Thai
Service kind : Complete Main
Default : Yes
Forced : Yes

Audio #2
ID : 3
Format : AAC LC
Format/Info : Advanced Audio Codec Low Complexity
Codec ID : A_AAC-2
Duration : 1 h 51 min
Bit rate : 638 kb/s
Channel(s) : 6 channels
Channel layout : C L R Ls Rs LFE
Sampling rate : 44.1 kHz
Frame rate : 43.066 FPS (1024 SPF)
Compression mode : Lossy
Delay relative to video : -5 ms
Stream size : 507 MiB (12%)
Title : Thai AAC (5.1)
Language : Thai
Default : No
Forced : No

Audio #3
ID : 4
Format : AC-3
Format/Info : Audio Coding 3
Commercial name : Dolby Digital
Codec ID : A_AC3
Duration : 1 h 51 min
Bit rate mode : Constant
Bit rate : 448 kb/s
Channel(s) : 6 channels
Channel layout : L R C LFE Ls Rs
Sampling rate : 48.0 kHz
Frame rate : 31.250 FPS (1536 SPF)
Bit depth : 16 bits
Compression mode : Lossy
Delay relative to video : -5 ms
Stream size : 356 MiB (8%)
Title : Japanese DTS (5.1)
Language : Japanese
Service kind : Complete Main
Default : No
Forced : No

Audio #4
ID : 5
Format : AC-3
Format/Info : Audio Coding 3
Commercial name : Dolby Digital
Codec ID : A_AC3
Duration : 1 h 51 min
Bit rate mode : Constant
Bit rate : 448 kb/s
Channel(s) : 6 channels
Channel layout : L R C LFE Ls Rs
Sampling rate : 48.0 kHz
Frame rate : 31.250 FPS (1536 SPF)
Bit depth : 16 bits
Compression mode : Lossy
Delay relative to video : -5 ms
Stream size : 356 MiB (8%)
Title : Italian DTS (5.1)
Language : Italian
Service kind : Complete Main
Default : No
Forced : No

Text #1
ID : 6
Format : UTF-8
Codec ID : S_TEXT/UTF8
Codec ID/Info : UTF-8 Plain Text
Duration : 1 h 51 min
Bit rate : 31 b/s
Count of elements : 955
Stream size : 25.6 KiB (0%)
Title : English SRT
Language : English
Default : No
Forced : No

Text #2
ID : 7
Format : UTF-8
Codec ID : S_TEXT/UTF8
Codec ID/Info : UTF-8 Plain Text
Duration : 1 h 50 min
Bit rate : 43 b/s
Count of elements : 920
Stream size : 35.2 KiB (0%)
Title : Italian SRT
Language : Italian
Default : No
Forced : No

DOWNLOAD


PART01 |||| PART02 |||| PART03 |||| PART04 |||| PART05

PART01 |||| PART02 |||| PART03 |||| PART04 |||| PART05

PART01 |||| PART02 |||| PART03 |||| PART04 |||| PART05

PART01 |||| PART02 |||| PART03 |||| PART04 |||| PART05

PART01 |||| PART02 |||| PART03 |||| PART04 |||| PART05



Disable Comments
%d bloggers like this: