[MINI-HD] Bikeman (2018) ไบค์แมน ศักรินทร์ตูดหมึก [1080p] [พากย์ไทย 2.0] [หนังไทย ไม่มีบรรยาย] [เสียงไทยมาสเตอร์] [OPENLOAD]

4

โหลดหนัง Bikeman (2018) ไบค์แมน ศักรินทร์ตูดหมึก

Bikeman (2018) 1h 46min | Comedy | 20 September 2018 (Thailand) Summary: "Sakkarin" is a 25 year old guy who could not find a job as his mother wishes him to be a banker. To take care and make the family happy, he has to lie by wearing the bank uniform out of ... See full summary »
Countries: ThailandLanguages: Thai

เรื่องย่อ Bikeman (2018) ไบค์แมน ศักรินทร์ตูดหมึก

ก้าวแรกที่ศักรินทร์ (พีช พชร) เดินออกจากบ้านไปทำงาน ภาพหนุ่มแบงค์ผูกไทที่เดินทางจากจังหวัดอยุธยา เข้ามาทำงานในกรุงเทพมหานคร เป็นภาพที่แม่ (เจนนิเฟอร์ คิ้ม) คุ้นชิน แต่นี่ไม่ใช่ชีวิตจริงของศักรินทร์แม้แต่นิดเดียว เพราะเมื่อเค้ามาถึงกรุงเทพ เค้ากลับเป็นแค่เพียงคนขับวินมอเตอร์ไซค์ ความลับของศักรินทร์ที่เค้าต้องปิดบังไม่ได้มีเพียงแค่ครอบครัวเท่านั้น รวมไปถึงจ๋าย (ฝน ศนันธฉัตร) สาวแบงค์เพื่อนเก่าที่ศักรินทร์เคยแอบชอบสมัยเรียน เอ (ปราโมทย์ ปาทาน) แฟนของจ๋ายที่มีดีกรีเป็นถึงรองผู้จัดการแบงค์ และลุงปรีชา (ค่อม ชวนชื่น) เพื่อนของพ่อที่เป็นเสมือนคนในครอบครัว ที่คอยจับผิดศักรินทร์ทุกอิริยาบถ มีเพียงพี่หลง (โรเบิร์ต สายควัน) และกลุ่มเพื่อนวินมอเตอร์ไซค์เท่านั้นที่รู้ความลับนี้ !!!

Complete name : [MINI-HD]_Bikeman.2018.1080p.WEB-DL.AC3.x264.One2loadup.com.mkv
Format : Matroska
Format version : Version 4
File size : 2.09 GiB
Duration : 1 h 45 min
Overall bit rate : 2 842 kb/s
Movie name : [MINI-HD]_Bikeman.2018.1080p.WEB-DL.AC3.x264.One2loadup.com
Encoded date : UTC 2019-02-08T05:40:57Z
Writing application : HandBrake 1.1.1 2018061800
Writing library : Lavf57.7.2

Video
ID : 1
Format : AVC
Format/Info : Advanced Video Codec
Format profile : [email protected]
Format settings : CABAC / 4 Ref Frames
Format settings, CABAC : Yes
Format settings, ReFrames : 4 frames
Codec ID : V_MPEG4/ISO/AVC
Duration : 1 h 45 min
Bit rate : 2 658 kb/s
Width : 1 920 pixels
Height : 804 pixels
Display aspect ratio : 2.40:1
Frame rate mode : Constant
Frame rate : 25.000 FPS
Color space : YUV
Chroma subsampling : 4:2:0
Bit depth : 8 bits
Scan type : Progressive
Bits/(Pixel*Frame) : 0.069
Stream size : 1.96 GiB (94%)
Writing library : x264 core 155 r2901 7d0ff22
Encoding settings : cabac=1 / ref=2 / deblock=1:0:0 / analyse=0x1:0x111 / me=hex / subme=6 / psy=1 / psy_rd=1.00:0.00 / mixed_ref=1 / me_range=16 / chroma_me=1 / trellis=1 / 8x8dct=0 / cqm=0 / deadzone=21,11 / fast_pskip=1 / chroma_qp_offset=-2 / threads=6 / lookahead_threads=1 / sliced_threads=0 / nr=0 / decimate=1 / interlaced=0 / bluray_compat=0 / constrained_intra=0 / bframes=3 / b_pyramid=2 / b_adapt=1 / b_bias=0 / direct=1 / weightb=1 / open_gop=0 / weightp=1 / keyint=250 / keyint_min=25 / scenecut=40 / intra_refresh=0 / rc_lookahead=30 / rc=crf / mbtree=1 / crf=22.0 / qcomp=0.60 / qpmin=0 / qpmax=69 / qpstep=4 / vbv_maxrate=20000 / vbv_bufsize=25000 / crf_max=0.0 / nal_hrd=none / filler=0 / ip_ratio=1.40 / aq=1:1.00
Default : Yes
Forced : No
Color range : Limited
Color primaries : BT.709
Transfer characteristics : BT.709
Matrix coefficients : BT.709

Audio
ID : 2
Format : AC-3
Format/Info : Audio Coding 3
Commercial name : Dolby Digital
Codec ID : A_AC3
Duration : 1 h 45 min
Bit rate mode : Constant
Bit rate : 128 kb/s
Channel(s) : 2 channels
Channel layout : L R
Sampling rate : 48.0 kHz
Frame rate : 31.250 FPS (1536 SPF)
Bit depth : 16 bits
Compression mode : Lossy
Stream size : 96.6 MiB (5%)
Title : Stereo
Service kind : Complete Main
Default : Yes
Forced : No

DOWNLOAD


PART01 |||| PART02 |||| PART03

PART01 |||| PART02 |||| PART03

PART01 |||| PART02 |||| PART03

PART01 |||| PART02 |||| PART03


4 Comments
  1. Wutichaii
    Wutichaii says

    โหลดไม่ได้ครับ ติดต่อกลับที 089-4856811

    1. Admin
      Admin says

      ทดสอบแล้วโหลดได้ปกติฮ๊ะ ไม่ทราบติดปัยหาตรงไหนฮ๊ะ

  2. un says

    Part 2,3 โหลดไม่ได้ครับ

    1. Admin
      Admin says

      แก้ไขเรียบร้อยฮ๊ะ

Leave A Reply

Your email address will not be published.

%d bloggers like this: