[MINI-HD] Battle Drone (2018) สงครามหุ่นรบพิฆาต [1080p] [พากย์ไทย DTS + เสียงอังกฤษ DTS] [บรรยายอังกฤษ] [เสียงไทย + ซับ ENG] [OPENLOAD]

0

โหลดหนัง Battle Drone (2018) สงครามหุ่นรบพิฆาต

Battle Drone (2018) 1h 33min | Action, Sci-Fi | 1 March 2018 (USA) Summary: 6 mercenaries are hired by CIA to abduct an heir to a republic and take out an arms dealer in Moscow. They get a followup mission in Chernobyl. Treason awaits them.
Countries: USALanguages: English

เรื่องย่อ Battle Drone (2018) สงครามหุ่นรบพิฆาต

เรื่องราวหน่วยรบพิเศษของ CIA ได้ถูกส่งเข้าไปทำภารกิจลับสุดยอด แต่พวกเขาหารู้ไม่ว่าที่จริงแล้วภารกิจนี้ พวกเขาคือหนูทดลองให้กับหุ่นรบพิฆาต!!

Complete name : [MINI-HD]_Battle.Of.The.Drones.2018.1080p.DTS.x264.One2loadup.com.mkv
Format : Matroska
Format version : Version 4
File size : 6.57 GiB
Duration : 1 h 33 min
Overall bit rate : 10.0 Mb/s
Movie name : [MINI-HD]_Battle.Of.The.Drones.2018.1080p.DTS.x264.One2loadup.com
Encoded date : UTC 2019-04-15 09:32:56
Writing application : mkvmerge v33.0.0 (‘A Little Bit of Madness’) 64-bit
Writing library : libebml v1.3.7 + libmatroska v1.5.0

Video
ID : 1
Format : AVC
Format/Info : Advanced Video Codec
Format profile : [email protected]
Format settings : CABAC / 5 Ref Frames
Format settings, CABAC : Yes
Format settings, ReFrames : 5 frames
Codec ID : V_MPEG4/ISO/AVC
Duration : 1 h 33 min
Bit rate : 4 737 kb/s
Width : 1 920 pixels
Height : 804 pixels
Display aspect ratio : 2.40:1
Frame rate mode : Constant
Frame rate : 23.976 (24000/1001) FPS
Color space : YUV
Chroma subsampling : 4:2:0
Bit depth : 8 bits
Scan type : Progressive
Bits/(Pixel*Frame) : 0.128
Stream size : 3.10 GiB (47%)
Title : [MINI-HD]_Battle.Of.The.Drones.2018.1080p.DTS.x264.One2loadup.com
Writing library : x264 core 155 r2901 7d0ff22
Encoding settings : cabac=1 / ref=5 / deblock=1:0:0 / analyse=0x3:0x3 / me=dia / subme=1 / psy=1 / psy_rd=1.00:0.00 / mixed_ref=0 / me_range=16 / chroma_me=1 / trellis=0 / 8x8dct=1 / cqm=0 / deadzone=21,11 / fast_pskip=1 / chroma_qp_offset=0 / threads=3 / lookahead_threads=1 / sliced_threads=0 / nr=0 / decimate=1 / interlaced=0 / bluray_compat=0 / constrained_intra=0 / bframes=5 / b_pyramid=2 / b_adapt=1 / b_bias=0 / direct=1 / weightb=1 / open_gop=0 / weightp=1 / keyint=240 / keyint_min=24 / scenecut=40 / intra_refresh=0 / rc_lookahead=0 / rc=crf / mbtree=0 / crf=20.0 / qcomp=0.60 / qpmin=0 / qpmax=69 / qpstep=4 / vbv_maxrate=25000 / vbv_bufsize=31250 / crf_max=0.0 / nal_hrd=none / filler=0 / ip_ratio=1.40 / pb_ratio=1.30 / aq=1:1.00
Language : English
Default : Yes
Forced : No
Color range : Limited
Color primaries : BT.709
Transfer characteristics : BT.709
Matrix coefficients : BT.709

Audio #1
ID : 2
Format : DTS
Format/Info : Digital Theater Systems
Codec ID : A_DTS
Duration : 1 h 33 min
Bit rate mode : Constant
Bit rate : 2 646 kb/s
Channel(s) : 6 channels
Channel layout : C L R Ls Rs LFE
Sampling rate : 32.0 kHz
Frame rate : 31.250 FPS (1024 SPF)
Bit depth : 16 bits
Compression mode : Lossy
Stream size : 1.73 GiB (26%)
Title : 5.1 DTS 32000-1.73G
Language : Thai
Default : Yes
Forced : No

Audio #2
ID : 3
Format : DTS
Format/Info : Digital Theater Systems
Codec ID : A_DTS
Duration : 1 h 33 min
Bit rate mode : Constant
Bit rate : 2 646 kb/s
Channel(s) : 6 channels
Channel layout : C L R Ls Rs LFE
Sampling rate : 32.0 kHz
Frame rate : 31.250 FPS (1024 SPF)
Bit depth : 16 bits
Compression mode : Lossy
Stream size : 1.73 GiB (26%)
Title : 5.1 DTS 32000-1.73G
Language : English
Default : No
Forced : No

Text #1
ID : 4
Format : ASS
Codec ID : S_TEXT/ASS
Codec ID/Info : Advanced Sub Station Alpha
Duration : 1 h 31 min
Bit rate : 86 b/s
Count of elements : 1181
Compression mode : Lossless
Stream size : 58.1 KiB (0%)
Title : TEXT/ASS
Language : English
Default : Yes
Forced : Yes

Text #2
ID : 5
Format : UTF-8
Codec ID : S_TEXT/UTF8
Codec ID/Info : UTF-8 Plain Text
Duration : 1 h 31 min
Bit rate : 48 b/s
Count of elements : 1181
Stream size : 32.5 KiB (0%)
Title : SRT
Language : English
Default : No
Forced : No

DOWNLOAD


PART01 |||| PART02 |||| PART03 |||| PART04 |||| PART05 |||| PART06

PART01 |||| PART02 |||| PART03 |||| PART04 |||| PART05 |||| PART06

PART01 |||| PART02 |||| PART03 |||| PART04 |||| PART05 |||| PART06

PART01 |||| PART02 |||| PART03 |||| PART04 |||| PART05 |||| PART06


Leave A Reply

Your email address will not be published.

%d bloggers like this: