[MINI-HD] Babel (2006) อาชญากรรม / ความหวัง / การสูญเสีย [720p] [พากย์ไทย 5.1 + เสียงอังกฤษ 5.1] [บรรยายไทย + อังกฤษ] [เสียงไทย + ซับไทย] [PANDAFILE]

0

โหลดหนัง Babel (2006) อาชญากรรม / ความหวัง / การสูญเสีย

Babel | November 10, 2006 (United States) Summary: Tragedy strikes a married couple on vacation in the Moroccan desert, touching off an interlocking story involving four different families.
Countries: United States, Mexico, FranceLanguages: English, Arabic, Spanish, Japanese, Berber languages, French, Russian, Japanese Sign Language

เรื่องย่อ Babel (2006) อาชญากรรม / ความหวัง / การสูญเสีย

เหตุการณ์เริ่มต้นจากอุบัติเหตุของซูซาน โจนส์ (Cate Blanchett) ถูกยิงขณะที่นั่งอยู่ในรถทัวร์ ระว่างการท่องเที่ยวโมร็อคโคกับสามี (Brad Pitt) ทำให้เกิดเหตุการณ์ต่อเนื่องกับอีกสี่ครอบครัวในประเทศต่างๆกันทั่วโลกแม้จะเกี่ยวพันกันโดยสภาพแวดล้อมต่างๆ แต่กลับถูกแยกให้ห่างกันโดยทวีป,วัฒนธรรม และภาษา ซึ่งเปรียบเทียบกับคำว่า Babel ที่มีต้นกำเนิดมาจากตำนานที่มนุษย์หวังสร้างหอคอยสูงเสียดฟ้าชื่อ Babel เพื่อท้าทายให้ถึงสวรรค์ พระเจ้าจึงลงทัณฑ์ด้วยการทำให้มนุษย์พูดคนละภาษา สิ่งที่ตามมาคือพวกเขาสื่อสารกันไม่รู้เรื่อง นั่นทำให้การสร้างหอคอยเกิดอุปสรรคไม่ประสบผลสำเร็จ

Complete name : [MINI-HD]_Babel.2006.720p.Blu-ray.AC-3.One2loadup.com.mkv
Format : Matroska
Format version : Version 2
File size : 3.38 GiB
Duration : 2 h 23 min
Overall bit rate : 3 376 kb/s
Encoded date : UTC 2011-09-29 09:51:54
Writing application : mkvmerge v3.4.0 (‘Rapunzel’) built on May 15 2010 09:38:20
Writing library : libebml v0.8.0 + libmatroska v0.9.0

Video
ID : 1
Format : AVC
Format/Info : Advanced Video Codec
Format profile : [email protected]
Format settings, CABAC : Yes
Format settings, RefFrames : 3 frames
Codec ID : V_MPEG4/ISO/AVC
Duration : 2 h 23 min
Bit rate : 2 221 kb/s
Nominal bit rate : 2 344 kb/s
Width : 1 280 pixels
Height : 720 pixels
Display aspect ratio : 16:9
Frame rate mode : Constant
Frame rate : 24.000 FPS
Color space : YUV
Chroma subsampling : 4:2:0
Bit depth : 8 bits
Scan type : Progressive
Bits/(Pixel*Frame) : 0.100
Stream size : 2.23 GiB (66%)
Title : Encode by softerman
Writing library : x264 core 116 r2019M 9cc407d
Encoding settings : cabac=1 / ref=3 / deblock=1:0:0 / analyse=0x3:0x133 / me=dia / subme=1 / psy=1 / psy_rd=1.00:0.20 / mixed_ref=1 / me_range=16 / chroma_me=1 / trellis=0 / 8x8dct=1 / cqm=0 / deadzone=21,11 / fast_pskip=1 / chroma_qp_offset=0 / threads=12 / sliced_threads=0 / nr=0 / decimate=1 / interlaced=0 / bluray_compat=0 / constrained_intra=0 / bframes=3 / b_pyramid=1 / b_adapt=0 / b_bias=0 / direct=3 / weightb=1 / open_gop=0 / weightp=0 / keyint=240 / keyint_min=24 / scenecut=40 / intra_refresh=0 / rc_lookahead=40 / rc=abr / mbtree=1 / bitrate=2344 / ratetol=1.0 / qcomp=0.60 / qpmin=10 / qpmax=51 / qpstep=4 / ip_ratio=1.40 / aq=1:1.00
Language : English
Default : Yes
Forced : No

Audio #1
ID : 2
Format : AC-3
Format/Info : Audio Coding 3
Format settings, Endianness : Big
Codec ID : A_AC3
Duration : 2 h 23 min
Bit rate mode : Constant
Bit rate : 640 kb/s
Channel(s) : 6 channels
Channel positions : Front: L C R, Side: L R, LFE
Sampling rate : 48.0 kHz
Frame rate : 31.250 FPS (1536 SPF)
Bit depth : 16 bits
Compression mode : Lossy
Stream size : 657 MiB (19%)
Title : Eng
Language : English
Service kind : Complete Main
Default : Yes
Forced : No

Audio #2
ID : 3
Format : AC-3
Format/Info : Audio Coding 3
Format settings, Endianness : Big
Codec ID : A_AC3
Duration : 2 h 23 min
Bit rate mode : Constant
Bit rate : 448 kb/s
Channel(s) : 6 channels
Channel positions : Front: L C R, Side: L R, LFE
Sampling rate : 48.0 kHz
Frame rate : 31.250 FPS (1536 SPF)
Bit depth : 16 bits
Compression mode : Lossy
Stream size : 460 MiB (13%)
Title : Thai
Language : Thai
Service kind : Complete Main
Default : No
Forced : No

Text #1
ID : 4
Format : UTF-8
Codec ID : S_TEXT/UTF8
Codec ID/Info : UTF-8 Plain Text
Title : Thai
Language : Thai
Default : Yes
Forced : No

Text #2
ID : 5
Format : VobSub
Muxing mode : zlib
Codec ID : S_VOBSUB
Codec ID/Info : Picture based subtitle format used on DVDs
Title : Eng
Language : English
Default : No
Forced : No

DOWNLOAD


PART01 |||| PART02 |||| PART03 |||| PART04

PART01 |||| PART02 |||| PART03 |||| PART04

PART01 |||| PART02 |||| PART03 |||| PART04

PART01 |||| PART02 |||| PART03 |||| PART04

PART01 |||| PART02 |||| PART03 |||| PART04


Leave A Reply

อีเมล์ของคุณจะไม่แสดงให้เห็น Your email address will not be published.

%d bloggers like this: