[MINI-HD] Atonement (2007) ตราบาปลิขิตรัก [1080p] [พากย์ไทย 2.0 + เสียงอังกฤษ 5.1] [บรรยายไทย + อังกฤษ] [เสียงไทย + ซับไทย] [PANDAFILE]

0

โหลดหนัง Atonement (2007) ตราบาปลิขิตรัก

Atonement | January 11, 2008 (United States) Summary: Thirteen-year-old fledgling writer Briony Tallis irrevocably changes the course of several lives when she accuses her older sister's lover of a crime he did not commit.
Countries: United Kingdom, France, United StatesLanguages: English, French

เรื่องย่อ Atonement (2007) ตราบาปลิขิตรัก

เรื่องราวในอังกฤษ ปี 1935 ท่ามกลางเงามืดของสงครามโลกครั้งที่ 2 “ไบรโอนี่ ทัลลิส” (Saoirse Ronan) และครอบครัวของเธอยังคงใช้ชีวิตอย่างหรูหราอยู่ในคฤห าสน์ที่แสนใหญ่โตของพวกเขา เมื่อสมาชิกของครอบครัวมาชุมนุมกันในช่วงสุดสัปดาห์ อากาศที่ร้อนอบอ้าวและอารมณ์ที่ถูกเก็บกดมานานเริ่มเ ผยโฉม ไบรโอนี่ นักเขียนน้องใหม่ คือเด็กหญิงที่มาพร้อมจินตนาการอันโชติช่วง เพราะความเข้าใจผิด เธอได้กล่าวหา “ร็อบบี้ เทอร์เนอร์” (James McAvoy) ลูกชายของแม่บ้าน ผู้เป็นคนรักของ “เซซิเลีย ทัลลิส” (Keira Knightley) พี่สาวของเธอ ว่ากระทำความผิดในเหตุการณ์ที่เขาไม่ได้เป็นผู้ก่อ การกล่าวหาครั้งนี้ได้ทำลายความรักที่เพิ่งผลิบานระห ว่างร็อบบี้และเซซิเลีย และได้เปลี่ยนชีวิตของพวกเขาไปตลอดกาล

Complete name : [MINI-HD]_Atonement.2007.1080p.BrRip.AC3.x264.One2loadup.com.mkv
Format : Matroska
Format version : Version 4
File size : 3.56 GiB
Duration : 2 h 2 min
Overall bit rate : 4 149 kb/s
Movie name : [MINI-HD]_Atonement.2007.1080p.BrRip.AC3.x264.One2loadup.com
Encoded date : UTC 2014-07-14 08:00:29
Writing application : mkvmerge v6.8.0 (‘Theme for Great Cities’) 32bit built on Mar 2 2014 21:27:07
Writing library : libebml v1.3.0 + libmatroska v1.4.1

Video
ID : 1
Format : AVC
Format/Info : Advanced Video Codec
Format profile : [email protected]
Format settings : CABAC / 4 Ref Frames
Format settings, CABAC : Yes
Format settings, ReFrames : 4 frames
Codec ID : V_MPEG4/ISO/AVC
Duration : 2 h 2 min
Bit rate : 3 300 kb/s
Width : 1 920 pixels
Height : 1 038 pixels
Display aspect ratio : 1.85:1
Frame rate mode : Constant
Frame rate : 23.976 (24000/1001) FPS
Color space : YUV
Chroma subsampling : 4:2:0
Bit depth : 8 bits
Scan type : Progressive
Bits/(Pixel*Frame) : 0.069
Stream size : 2.77 GiB (78%)
Title : [MINI-HD]_Atonement.2007.1080p.BrRip.AC3.x264.One2loadup.com
Writing library : x264 core 130 r2273 b3065e6
Encoding settings : cabac=1 / ref=4 / deblock=1:2:2 / analyse=0x3:0x133 / me=umh / subme=10 / psy=1 / psy_rd=1.00:0.00 / mixed_ref=1 / me_range=16 / chroma_me=1 / trellis=2 / 8x8dct=1 / cqm=0 / deadzone=21,11 / fast_pskip=1 / chroma_qp_offset=-2 / threads=6 / lookahead_threads=1 / sliced_threads=0 / nr=0 / decimate=1 / interlaced=0 / bluray_compat=0 / constrained_intra=0 / bframes=3 / b_pyramid=0 / b_adapt=1 / b_bias=0 / direct=1 / weightb=1 / open_gop=0 / weightp=2 / keyint=240 / keyint_min=24 / scenecut=40 / intra_refresh=0 / rc_lookahead=40 / rc=2pass / mbtree=1 / bitrate=3300 / ratetol=1.0 / qcomp=0.60 / qpmin=0 / qpmax=69 / qpstep=4 / cplxblur=20.0 / qblur=0.5 / vbv_maxrate=20000 / vbv_bufsize=20000 / nal_hrd=none / ip_ratio=1.40 / aq=1:1.00
Language : English
Default : Yes
Forced : No

Audio #1
ID : 2
Format : AC-3
Format/Info : Audio Coding 3
Commercial name : Dolby Digital
Codec ID : A_AC3
Duration : 2 h 2 min
Bit rate mode : Constant
Bit rate : 192 kb/s
Channel(s) : 2 channels
Channel layout : L R
Sampling rate : 48.0 kHz
Frame rate : 31.250 FPS (1536 SPF)
Bit depth : 16 bits
Compression mode : Lossy
Stream size : 169 MiB (5%)
Title : 2.0 MASTER
Language : Thai
Service kind : Complete Main
Default : Yes
Forced : No

Audio #2
ID : 3
Format : AC-3
Format/Info : Audio Coding 3
Commercial name : Dolby Digital
Codec ID : A_AC3
Duration : 2 h 2 min
Bit rate mode : Constant
Bit rate : 640 kb/s
Channel(s) : 6 channels
Channel layout : L R C LFE Ls Rs
Sampling rate : 48.0 kHz
Frame rate : 31.250 FPS (1536 SPF)
Bit depth : 16 bits
Compression mode : Lossy
Stream size : 562 MiB (15%)
Title : 5.1
Language : English
Service kind : Complete Main
Default : No
Forced : No

Text #1
ID : 4
Format : VobSub
Codec ID : S_VOBSUB
Codec ID/Info : Picture based subtitle format used on DVDs
Title : DVD
Language : Thai
Default : No
Forced : No

Text #2
ID : 5
Format : VobSub
Codec ID : S_VOBSUB
Codec ID/Info : Picture based subtitle format used on DVDs
Title : 480P FIXED
Language : Thai
Default : Yes
Forced : No

Text #3
ID : 6
Format : VobSub
Codec ID : S_VOBSUB
Codec ID/Info : Picture based subtitle format used on DVDs
Title : 1080P FIXED
Language : Thai
Default : No
Forced : No

Text #4
ID : 7
Format : UTF-8
Codec ID : S_TEXT/UTF8
Codec ID/Info : UTF-8 Plain Text
Title : SRT
Language : English
Default : No
Forced : No

Text #5
ID : 8
Format : UTF-8
Codec ID : S_TEXT/UTF8
Codec ID/Info : UTF-8 Plain Text
Title : SRT OCR FIXED BY ZAKKY
Language : Thai
Default : No
Forced : No

Text #6
ID : 9
Format : PGS
Codec ID : S_HDMV/PGS
Codec ID/Info : Picture based subtitle format used on BDs/HD-DVDs
Title : PGS FIXED
Language : Thai
Default : No
Forced : No

Menu
00:00:00.000 : en:First Play (Main Titles)
00:06:19.921 : en:Two Figures By A Fountain
00:13:43.281 : en:Closer Relations
00:20:16.215 : en:A Written Apology
00:25:55.387 : en:Interference
00:32:52.762 : en:Act of Love
00:38:33.353 : en:No Harm Done
00:43:24.894 : en:False Witness
00:49:24.628 : en:Serving Time
00:57:40.290 : en:Save Me
01:04:09.763 : en:By the Sea
01:10:14.794 : en:Putting Things Right
01:17:18.092 : en:Remembering
01:20:00.170 : en:Not Ready
01:25:00.595 : en:Can’t Escape
01:28:37.979 : en:Wounded
01:34:17.652 : en:With My Own Eyes
01:37:28.801 : en:Telling the Truth
01:46:06.235 : en:Final Act
01:54:21.396 : en:End Titles

DOWNLOAD


PART01 |||| PART02 |||| PART03 |||| PART04

PART01 |||| PART02 |||| PART03 |||| PART04

PART01 |||| PART02 |||| PART03 |||| PART04

PART01 |||| PART02 |||| PART03 |||| PART04

PART01 |||| PART02 |||| PART03 |||| PART04


Leave A Reply

อีเมล์ของคุณจะไม่แสดงให้เห็น Your email address will not be published.

%d bloggers like this: