[MINI-HD] สาระแนเลิฟยูววว (2017) Saranair-Love You [720p] [Master] [พากย์ไทย 5.1] [DVDRip.AC3.x264] [เสียงไทยมาสเตอร์] [OPENLOAD]

4

โหลดหนัง  สาระแนเลิฟยูววว (2017) Saranair-Love You

Ip Man 2 | April 29, 2010 (China) Summary: Centering on Ip Man's migration to Hong Kong in 1949 as he attempts to propagate his discipline of Wing Chun martial arts.
Countries: Hong Kong, ChinaLanguages: Cantonese, Chinese, English

เรื่องย่อ สาระแนเลิฟยูววว (2017) Saranair-Love You

ถือเป็นการกลับมาของหนังสาระแนครับ เราได้รับโอกาสจากค่ายหนังคุณภาพน้องใหม่อย่าง เทค ไทยแลนด์ (Tech Thailand) ของคุณหนึ่ง อัครพล เตชะรัตนประเสริฐ ให้นำกลับมาปัดฝุ่นคืนจอกันอีกครั้งครับ เนื้อหาของสาระแนเวอร์ชั่นนี้ก็จะเป็นเรื่องราวการไล่ล่าล้างแค้นแอ็คชั่นโหดมันส์ฮา ซึ่งได้เริ่มต้นขึ้นเมื่อสองเพื่อนซี้อย่าง หรั่งเร็ว ที่รับบทโดยคุณวิลลี่ แมคอินทอช และ เป้ง เป้าตุง ที่รับบทโดยผม เสนาหอย เกียรติศักดิ์ อุดมนาคเองครับ ซึ่งทั้งสองคนนี้คือนักโทษข้อหาอุกฉกรรจ์คดีโจรกรรมเพชรเดือนเก้าเพชรที่มีมูลค่ามหาศาล ได้แหกคุกที่มีมาตรการป้องกันอย่างแน่นหนา เพื่อไปตามหาเพชรเดือนเก้าที่เกิดการพลัดหลงกับพวกเขาระหว่างถูกตํารวจเข้าจับกุม พร้อมกับการคิดจะล้างแค้นคนที่แอบฉกเพชรเดือนเก้าของพวกเขาไปครอบครอง และเรื่องราวความสนุกสนานก็ได้เริ่มต้นจากจุดนี้เองครับ โดยเราได้ดารานักแสดงชื่อดังมาร่วมสร้างความสนุกสนาน แอ็คชั่น โหด มันส์ ฮา หักหลัง ล้างแค้น เซอร์ไพรส์กันอย่างล้นหลาม

Complete name : [MINI-HD]_Saranair.Love.You.2017.720p.AC3.x264.One2loadup.com.mkv
Format : Matroska
Format version : Version 4 / Version 2
File size : 3.54 GiB
Duration : 1 h 41 min
Overall bit rate : 4 995 kb/s
Movie name : [MINI-HD]_Saranair.Love.You.2017.720p.AC3.x264.One2loadup.com
Encoded date : UTC 2010-02-22 21:41:31
Writing application : mkvmerge v5.9.0 (‘On The Loose’) built on Dec 9 2012 15:37:01
Writing library : libebml v1.3.0 + libmatroska v1.4.0

Video
ID : 1
Format : AVC
Format/Info : Advanced Video Codec
Format profile : [email protected]
Format settings, CABAC : Yes
Format settings, RefFrames : 4 frames
Codec ID : V_MPEG4/ISO/AVC
Duration : 1 h 41 min
Bit rate : 4 546 kb/s
Width : 1 280 pixels
Height : 528 pixels
Display aspect ratio : 2.35:1
Original display aspect rat : 2.35:1
Frame rate mode : Constant
Frame rate : 25.000 FPS
Color space : YUV
Chroma subsampling : 4:2:0
Bit depth : 8 bits
Scan type : Progressive
Bits/(Pixel*Frame) : 0.269
Stream size : 3.15 GiB (89%)
Title : [MINI-HD]_Saranair.Love.You.2017.720p.AC3.x264.One2loadup.com
Writing library : x264 core 146 r2538 121396c
Encoding settings : cabac=1 / ref=3 / deblock=1:0:0 / analyse=0x3:0x113 / me=umh / subme=10 / psy=1 / psy_rd=1.00:0.00 / mixed_ref=1 / me_range=24 / chroma_me=1 / trellis=2 / 8x8dct=1 / cqm=0 / deadzone=21,11 / fast_pskip=1 / chroma_qp_offset=-2 / threads=12 / lookahead_threads=1 / sliced_threads=0 / nr=0 / decimate=1 / interlaced=0 / bluray_compat=0 / constrained_intra=0 / bframes=3 / b_pyramid=2 / b_adapt=1 / b_bias=0 / direct=1 / weightb=1 / open_gop=0 / weightp=2 / keyint=250 / keyint_min=25 / scenecut=40 / intra_refresh=0 / rc_lookahead=40 / rc=2pass / mbtree=1 / bitrate=4546 / ratetol=1.0 / qcomp=0.60 / qpmin=0 / qpmax=69 / qpstep=4 / cplxblur=20.0 / qblur=0.5 / ip_ratio=1.40 / aq=1:1.00
Language : Thai
Default : Yes
Forced : No

Audio
ID : 2
Format : AC-3
Format/Info : Audio Coding 3
Format settings, Endianness : Big
Codec ID : A_AC3
Duration : 1 h 41 min
Bit rate mode : Constant
Bit rate : 448 kb/s
Channel(s) : 6 channels
Channel positions : Front: L C R, Side: L R, LFE
Sampling rate : 48.0 kHz
Frame rate : 31.250 FPS (1536 SPF)
Bit depth : 16 bits
Compression mode : Lossy
Stream size : 325 MiB (9%)
Language : Thai
Service kind : Complete Main
Default : Yes
Forced : No

Menu
00:00:00.000 : en:Chapter 1
00:09:10.160 : en:Chapter 2
00:15:27.440 : en:Chapter 3
00:27:24.080 : en:Chapter 4
00:35:26.480 : en:Chapter 5
00:43:00.080 : en:Chapter 6
00:52:30.320 : en:Chapter 7
01:01:16.400 : en:Chapter 8
01:10:37.040 : en:Chapter 9
01:19:21.200 : en:Chapter 10
01:28:21.200 : en:Chapter 11
01:37:01.040 : en:Chapter 12

DOWNLOAD


PART01 |||| PART02 |||| PART03 |||| PART04

PART01 |||| PART02 |||| PART03 |||| PART04

PART01 |||| PART02 |||| PART03 |||| PART04

PART01 |||| PART02 |||| PART03 |||| PART04


4 Comments
  1. แอม says

    part 1 โหลดไม่ได้ครับ

    1. Admin
      Admin says

      แก้ไขแล้วนะฮ๊ะ

  2. Chalermpon Mingsing
    Chalermpon Mingsing says

    หนังไทยทุกเรื่องลิงค์เสีย

    1. Admin
      Admin says

      เรื่องนี้แก้ไขเรียบร้อยแล้วฮ๊ะ ส่วนเรื่องอื่นๆ แนะนำให้แจ้งในเรื่องนั้นเลยเราไม่สามารถเช็คได้ทุกเรื่องว่าเรื่องไหนโหลดได้โหลดไม่ได้ฮ๊ะ

Leave A Reply

อีเมล์ของคุณจะไม่แสดงให้เห็น Your email address will not be published.

%d bloggers like this: