[MINI Super-HQ] Master of the Shadowless Kick: Wong Kei-Ying (2016) หวง ฉี อิง บาทาไร้เงา [1080p] [พากย์ไทย DTS + เสียงจีน DTS] [BrRip.DTS.x264] [บรรยายไทย + อังกฤษ] [เสียงไทย + ซับไทย] [PANDAFILE]

2

โหลดหนัง Master of the Shadowless Kick: Wong Kei-Ying (2016) หวง ฉี อิง บาทาไร้เงา 

เรื่องย่อ Master of the Shadowless Kick: Wong Kei-Ying (2016) หวง ฉี อิง บาทาไร้เงา

หวง ฉี อิง แพทย์หนุ่มผู้ซื่อสัตย์และเงียบขรึม ใช้ชีวิตของเขาตามกฎเกณฑ์และจรรยาบรรณแพทย์ และทุ่มเทเวลาให้แก่การช่วยชีวิตผู้คน ในขณะที่เขาพยายามหลีกเลี่ยงข้อขัดแย้งการเมือง และอำนาจมืด เขากลับพบว่าตนเองได้หลงเข้าไปติดอยู่ภายใต้อำนาจของ เหว่ย ผู้ว่าวายร้ายแห่งเมืองกวางโจว ที่แสร้งต่อสู้กับกลุ่มโจรค้าฝิ่นในเมือง เพื่อยึดธุรกิจค้ายามาเป็นของตนเอง กว่าหวงจะรู้ความจริง ที่ปรึกษาของเขาก็กลับถูกเหล่าโจรค่าฝิ่นจับตัวไปเสียแล้ว และต้องกลายมาเป็นทาสยาเสพติดของเหว่ย ด้วยความสิ้นหวังและไร้ทางเลือก หวงจึงพยายามหาทางช่วยเหลือที่ปรึกษาของเขาโดยแสร้งท ำเป็นจงรักภักดีกับเหว่ยก่อนที่ หวงจะสามารถช่วยที่ปรึกษาได้สำเร็จ ที่ปรึกษาของเขากลับสิ้นลมไปเสียก่อน เหลือไว้เพียงแต่ภาพวาดของศาสตร์การต่อสู้กำลังภายในในตำนานอย่าง “บาทาไร้เงา” หว่องจะต้องฝึกปรือวิชานี้เพื่อล้มวายร้ายเหว่ยให้จง ได้!!!

Complete name : [MINI Super-HQ]_Master.of.the.Shadowless.Kick.Wong.Kei.Ying.2017.1080p.BrRip.DTS.x264.One2loadup.com.mkv
Format : Matroska
Format version : Version 4 / Version 2
File size : 3.86 GiB
Duration : 1 h 38 min
Overall bit rate : 5 593 kb/s
Movie name : [MINI Super-HQ]_Master.of.the.Shadowless.Kick.Wong.Kei.Ying.2017.1080p.BrRip.DTS.x264.One2loadup.com
Encoded date : UTC 2010-02-22 21:41:31
Writing application : mkvmerge v5.9.0 (‘On The Loose’) built on Dec 9 2012 15:37:01
Writing library : libebml v1.3.0 + libmatroska v1.4.0

Video
ID : 1
Format : AVC
Format/Info : Advanced Video Codec
Format profile : [email protected]
Format settings, CABAC : Yes
Format settings, RefFrames : 4 frames
Codec ID : V_MPEG4/ISO/AVC
Duration : 1 h 38 min
Bit rate : 4 004 kb/s
Width : 1 920 pixels
Height : 1 080 pixels
Display aspect ratio : 16:9
Frame rate mode : Constant
Frame rate : 23.976 FPS
Color space : YUV
Chroma subsampling : 4:2:0
Bit depth : 8 bits
Scan type : Progressive
Bits/(Pixel*Frame) : 0.081
Stream size : 2.73 GiB (71%)
Title : [MINI Super-HQ]_Master.of.the.Shadowless.Kick.Wong.Kei.Ying.2017.1080p.BrRip.DTS.x264.One2loadup.com
Writing library : x264 core 130 r2273 b3065e6
Encoding settings : cabac=1 / ref=3 / deblock=1:0:0 / analyse=0x3:0x113 / me=umh / subme=11 / psy=1 / psy_rd=1.00:0.00 / mixed_ref=1 / me_range=48 / chroma_me=1 / trellis=2 / 8x8dct=1 / cqm=0 / deadzone=21,11 / fast_pskip=1 / chroma_qp_offset=-2 / threads=10 / lookahead_threads=1 / sliced_threads=0 / nr=0 / decimate=1 / interlaced=0 / bluray_compat=0 / constrained_intra=0 / bframes=3 / b_pyramid=2 / b_adapt=1 / b_bias=0 / direct=1 / weightb=1 / open_gop=0 / weightp=2 / keyint=240 / keyint_min=24 / scenecut=40 / intra_refresh=0 / rc_lookahead=40 / rc=2pass / mbtree=1 / bitrate=4004 / ratetol=1.0 / qcomp=0.60 / qpmin=0 / qpmax=69 / qpstep=4 / cplxblur=20.0 / qblur=0.5 / ip_ratio=1.40 / aq=1:1.00
Language : Chinese
Default : Yes
Forced : No
Color range : Limited
Color primaries : BT.709
Transfer characteristics : BT.709
Matrix coefficients : BT.709

Audio #1
ID : 2
Format : DTS
Format/Info : Digital Theater Systems
Mode : 16
Format settings, Endianness : Big
Codec ID : A_DTS
Duration : 1 h 38 min
Bit rate mode : Constant
Bit rate : 768 kb/s
Channel(s) : 2 channels
Channel positions : Front: L R
Sampling rate : 48.0 kHz
Frame rate : 93.750 FPS (512 SPF)
Bit depth : 24 bits
Compression mode : Lossy
Stream size : 542 MiB (14%)
Title : Thai DTS BluRay Master
Language : Thai
Default : Yes
Forced : Yes

Audio #2
ID : 3
Format : DTS
Format/Info : Digital Theater Systems
Mode : 16
Format settings, Endianness : Big
Codec ID : A_DTS
Duration : 1 h 38 min
Bit rate mode : Constant
Bit rate : 755 kb/s
Channel(s) : 5 channels
Channel positions : Front: L C R, Side: L R
Sampling rate : 48.0 kHz
Frame rate : 93.750 FPS (512 SPF)
Bit depth : 24 bits
Compression mode : Lossy
Stream size : 533 MiB (13%)
Title : Chinese DTS
Language : Chinese
Default : No
Forced : No

Text #1
ID : 4
Format : VobSub
Codec ID : S_VOBSUB
Codec ID/Info : Picture based subtitle format used on DVDs
Language : Thai
Default : Yes
Forced : Yes

Text #2
ID : 5
Format : VobSub
Codec ID : S_VOBSUB
Codec ID/Info : Picture based subtitle format used on DVDs
Title : Thai 480p
Language : Thai
Default : No
Forced : No

Text #3
ID : 6
Format : VobSub
Codec ID : S_VOBSUB
Codec ID/Info : Picture based subtitle format used on DVDs
Title : Thai 720p
Language : Thai
Default : No
Forced : No

Text #4
ID : 7
Format : VobSub
Codec ID : S_VOBSUB
Codec ID/Info : Picture based subtitle format used on DVDs
Title : Thai 1080p
Language : Thai
Default : No
Forced : No

Text #5
ID : 8
Format : VobSub
Codec ID : S_VOBSUB
Codec ID/Info : Picture based subtitle format used on DVDs
Title : Thai 1080p Yellow
Language : Thai
Default : No
Forced : No

Text #6
ID : 9
Format : VobSub
Codec ID : S_VOBSUB
Codec ID/Info : Picture based subtitle format used on DVDs
Title : Thai 1080p BIG
Language : Thai
Default : No
Forced : No

Text #7
ID : 10
Format : PGS
Codec ID : S_HDMV/PGS
Codec ID/Info : Picture based subtitle format used on BDs/HD-DVDs
Title : Thai PGS BluRay Master
Language : Thai
Default : No
Forced : No

Text #8
ID : 11
Format : PGS
Codec ID : S_HDMV/PGS
Codec ID/Info : Picture based subtitle format used on BDs/HD-DVDs
Title : English
Language : English
Default : No
Forced : No

Menu
00:00:00.000 : en:Chapter 1
00:13:06.136 : en:Chapter 2
00:25:12.528 : en:Chapter 3
00:41:11.319 : en:Chapter 4
00:56:40.164 : en:Chapter 5
01:11:43.358 : en:Chapter 6
01:28:23.690 : en:Chapter 7

DOWNLOAD


PART01 |||| PART02 |||| PART03 |||| PART04

PART01 |||| PART02 |||| PART03 |||| PART04

PART01 |||| PART02 |||| PART03 |||| PART04

PART01 |||| PART02 |||| PART03 |||| PART04


2 Comments
  1. Sirichai Pasawai
    Sirichai Pasawai says

    ลิงค์ VIP โหลดไม่ได้สักอันเลยครับ

    1. Admin
      Admin says

      แก้ไขเรียบร้อยฮ๊ะ

Leave A Reply

อีเมล์ของคุณจะไม่แสดงให้เห็น Your email address will not be published.

%d bloggers like this: