[MINI-HD] James Bond 007 : Quantum of Solace (2008) 007 พยัคฆ์ร้ายเดิมพันระห่ำโลก [1080p] [พากย์ไทย DTS + เสียงอังกฤษ 5.1] [บรรยายไทย + อังกฤษ] [เสียงไทย + ซับไทย] [PANDAFILE]

4

โหลดหนัง James Bond 007 : Quantum of Solace (2008) 007 พยัคฆ์ร้ายเดิมพันระห่ำโลก 

Quantum of Solace | November 14, 2008 (United States) Summary: James Bond descends into mystery as he tries to stop a mysterious organisation from eliminating a country's most valuable resource.
Countries: United Kingdom, United StatesLanguages: English, Spanish, Italian, French, Swiss German, German

เรื่องย่อ James Bond 007 : Quantum of Solace (2008) 007 พยัคฆ์ร้ายเดิมพันระห่ำโลก

หลังการตายของเวสเปอร์ ผู้หญิงที่เขารัก เจมส์ บอนด์ เดินหน้าล้างแค้นในทันทีโดยใช้ภารกิจของหน่วยงานเป็น ฉากบังหน้า เพื่อจัดการกับวายร้ายที่อยู่เบื้องหลัง ซึ่งในภาคนี้คือเโดมินิค กรีน นักธุรกิจโฉดตัวการสำคัญขององค์กรลับ ที่มีแผนควบคุมแหล่งทรัพยากรธรรมชาติที่สำคัญของโลก โดยมีสายลับสาวอีกหนึ่งคนร่วมชะตา

Complete name : [MINI-HD]_Quantum.of.Solace.2008.1080p.HQ.THAIDTS.x264.BDMASTER.One2loadup.com.mkv
Format : Matroska
Format version : Version 4 / Version 2
File size : 3.15 GiB
Duration : 1 h 46 min
Overall bit rate : 4 250 kb/s
Movie name : [MINI-HD]_Quantum.of.Solace.2008.1080p.HQ.THAIDTS.x264.BDMASTER.One2loadup.com
Encoded date : UTC 2015-11-07 06:31:32
Writing application : mkvmerge v8.1.0 (‘Psychedelic Postcard’) 32bit
Writing library : libebml v1.3.1 + libmatroska v1.4.2

Video
ID : 1
Format : AVC
Format/Info : Advanced Video Codec
Format profile : [email protected]
Format settings, CABAC : Yes
Format settings, RefFrames : 5 frames
Codec ID : V_MPEG4/ISO/AVC
Duration : 1 h 46 min
Bit rate : 3 000 kb/s
Width : 1 920 pixels
Height : 800 pixels
Display aspect ratio : 2.40:1
Frame rate mode : Constant
Frame rate : 23.976 (24000/1001) FPS
Color space : YUV
Chroma subsampling : 4:2:0
Bit depth : 8 bits
Scan type : Progressive
Bits/(Pixel*Frame) : 0.081
Stream size : 2.24 GiB (71%)
Title : [MINI-HD]_Quantum.of.Solace.2008.1080p.HQ.THAIDTS.x264.BDMASTER.One2loadup.com
Writing library : x264 core 142 r2431 ac76440
Encoding settings : cabac=1 / ref=5 / deblock=1:0:0 / analyse=0x3:0x133 / me=umh / subme=10 / psy=1 / psy_rd=1.00:0.00 / mixed_ref=1 / me_range=24 / chroma_me=1 / trellis=2 / 8x8dct=1 / cqm=0 / deadzone=21,11 / fast_pskip=1 / chroma_qp_offset=-2 / threads=12 / lookahead_threads=2 / sliced_threads=0 / nr=0 / decimate=1 / interlaced=0 / bluray_compat=0 / constrained_intra=0 / bframes=8 / b_pyramid=2 / b_adapt=2 / b_bias=0 / direct=3 / weightb=1 / open_gop=0 / weightp=2 / keyint=240 / keyint_min=23 / scenecut=40 / intra_refresh=0 / rc_lookahead=60 / rc=2pass / mbtree=1 / bitrate=3000 / ratetol=1.0 / qcomp=0.60 / qpmin=0 / qpmax=69 / qpstep=4 / cplxblur=20.0 / qblur=0.5 / vbv_maxrate=62500 / vbv_bufsize=78125 / nal_hrd=none / filler=0 / ip_ratio=1.40 / aq=1:1.00
Language : English
Default : Yes
Forced : No

Audio #1
ID : 2
Format : DTS
Format/Info : Digital Theater Systems
Mode : 16
Format settings, Endianness : Big
Codec ID : A_DTS
Duration : 1 h 46 min
Bit rate mode : Constant
Bit rate : 768 kb/s
Channel(s) : 6 channels
Channel positions : Front: L C R, Side: L R, LFE
Sampling rate : 48.0 kHz
Frame rate : 93.750 FPS (512 SPF)
Bit depth : 24 bits
Compression mode : Lossy
Stream size : 584 MiB (18%)
Title : DTS
Language : Thai
Default : Yes
Forced : Yes

Audio #2
ID : 3
Format : AC-3
Format/Info : Audio Coding 3
Format settings, Endianness : Big
Codec ID : A_AC3
Duration : 1 h 46 min
Bit rate mode : Constant
Bit rate : 384 kb/s
Channel(s) : 6 channels
Channel positions : Front: L C R, Side: L R, LFE
Sampling rate : 48.0 kHz
Frame rate : 31.250 FPS (1536 SPF)
Bit depth : 16 bits
Compression mode : Lossy
Stream size : 292 MiB (9%)
Title : AC3
Language : English
Service kind : Complete Main
Default : No
Forced : No

Text #1
ID : 4
Format : VobSub
Codec ID : S_VOBSUB
Codec ID/Info : Picture based subtitle format used on DVDs
Title : 1080P BD MASTER
Language : Thai
Default : No
Forced : No

Text #2
ID : 5
Format : VobSub
Codec ID : S_VOBSUB
Codec ID/Info : Picture based subtitle format used on DVDs
Title : 1080P BD UNDER
Language : Thai
Default : No
Forced : No

Text #3
ID : 6
Format : VobSub
Codec ID : S_VOBSUB
Codec ID/Info : Picture based subtitle format used on DVDs
Title : 480P
Language : Thai
Default : No
Forced : No

Text #4
ID : 7
Format : PGS
Codec ID : S_HDMV/PGS
Codec ID/Info : Picture based subtitle format used on BDs/HD-DVDs
Title : BD MASTER
Language : Thai
Default : Yes
Forced : Yes

Text #5
ID : 8
Format : PGS
Codec ID : S_HDMV/PGS
Codec ID/Info : Picture based subtitle format used on BDs/HD-DVDs
Title : BD UNDER
Language : Thai
Default : No
Forced : No

Text #6
ID : 9
Format : PGS
Codec ID : S_HDMV/PGS
Codec ID/Info : Picture based subtitle format used on BDs/HD-DVDs
Title : BD MASTER
Language : English
Default : No
Forced : No

Menu
00:00:00.000 : en:00:00:00.000
00:04:10.125 : en:00:04:10.125
00:07:27.530 : en:00:07:27.530
00:10:20.537 : en:00:10:20.537
00:15:16.833 : en:00:15:16.833
00:17:47.650 : en:00:17:47.650
00:20:24.306 : en:00:20:24.306
00:22:51.370 : en:00:22:51.370
00:26:28.420 : en:00:26:28.420
00:29:06.370 : en:00:29:06.370
00:33:16.912 : en:00:33:16.912
00:35:48.104 : en:00:35:48.104
00:39:02.131 : en:00:39:02.131
00:44:19.156 : en:00:44:19.156
00:47:21.797 : en:00:47:21.797
00:52:30.898 : en:00:52:30.898
00:56:29.011 : en:00:56:29.011
01:01:17.173 : en:01:01:17.173
01:04:51.012 : en:01:04:51.012
01:11:04.802 : en:01:11:04.802
01:12:34.433 : en:01:12:34.433
01:17:16.423 : en:01:17:16.423
01:21:05.694 : en:01:21:05.694
01:24:17.719 : en:01:24:17.719
01:29:19.938 : en:01:29:19.938
01:36:15.520 : en:01:36:15.520
01:37:59.248 : en:01:37:59.248
01:41:39.135 : en:01:41:39.135

DOWNLOAD


PART01 |||| PART02 |||| PART03 |||| PART04

PART01 |||| PART02 |||| PART03 |||| PART04

PART01 |||| PART02 |||| PART03 |||| PART04

PART01 |||| PART02 |||| PART03 |||| PART04

PART01 |||| PART02 |||| PART03 |||| PART04


4 Comments
  1. Panitan Muenduang
    Panitan Muenduang says

    อัพไฟล์ของ openload ให้หน่อยได้ไหมคับ

    1. Admin
      Admin says

      แก้ไขเรียบร้อยฮ๊ะ

  2. Black Pearl The Slayer
    Black Pearl The Slayer says

    BAYFILES โหลดไม่ได้(อีกแล้ว)ครับ 😂 แอดช่วยแก้ให้หน่อยครับ 🙏

    1. Admin
      Admin says

      แก้ไขเรียบร้อยฮ๊ะ

Leave A Reply

อีเมล์ของคุณจะไม่แสดงให้เห็น Your email address will not be published.

%d bloggers like this: