[MINI-HD] Clinical (2017) คลินิคอล [1080p] [พากย์อังกฤษ 5.1] [Soundtrack บรรยายไทย] [เสียงอังกฤษ + ซับไทย + ซับอังกฤษ] [PANDAFILE]

2

Clinical (2017)

โหลดหนัง Clinical (2017) คลินิคอล

เรื่องย่อ Clinical (2017) คลินิคอล

“เมธิส เจน” จิตแพทย์สาวนักบำบัดรักษาอาการทางจิต ต้องตกอยู่ในภาวะหลอกหลอนจากเหตุเด็กสาว “นอร่า กรีน” ผู้ป่วยทางจิตที่มาให้เธอบำบัดรักษา ทำให้เกิดเรื่องราวสะพรึงตามมา อีกทั้งยังมีผู้ป่วยทางจิตที่เคยประสบอุบัติเหตุรุนแรงจนเสียโฉม ได้เข้ามามีส่วนในเรื่องราวทั้งหมด เหตุเชื่อมโยงต่างๆ นำพาให้จิตแพทย์สาวกลับต้องตกเป็นผู้ป่วยทางจิตเสียเอง ความสับสนและน่าสะพรึงจะถูกคลี่คลายไปในทางไหนกันแน่

Complete name : Clinical.2017.1080p.NF.WEBRip.DD5.1.x264.One2loadup.com.mkv
Format : Matroska
Format version : Version 2
File size : 1.77 GiB
Duration : 1 h 44 min
Overall bit rate : 2 431 kb/s
Movie name : Clinical.2017.1080p.NF.WEBRip.DD5.1.x264.One2loadup.com
Encoded date : UTC 2017-09-19 18:41:03
Writing application : mkvmerge v5.4.0 (‘Piper’) built on Mar 10 2012 13:34:39
Writing library : libebml v1.2.3 + libmatroska v1.3.0

Video
ID : 1
Format : AVC
Format/Info : Advanced Video Codec
Format profile : [email protected]
Format settings, CABAC : No
Format settings, RefFrames : 1 frame
Muxing mode : Header stripping
Codec ID : V_MPEG4/ISO/AVC
Duration : 1 h 44 min
Bit rate : 2 126 kb/s
Width : 1 920 pixels
Height : 1 080 pixels
Display aspect ratio : 16:9
Frame rate mode : Constant
Frame rate : 23.976 (24000/1001) FPS
Original frame rate : 23.000 FPS
Color space : YUV
Chroma subsampling : 4:2:0
Bit depth : 8 bits
Scan type : Progressive
Bits/(Pixel*Frame) : 0.043
Stream size : 1.55 GiB (87%)
Title : Clinical.2017.1080p.NF.WEBRip.DD5.1.x264.One2loadup.com
Writing library : À
Default : Yes
Forced : No

Audio
ID : 2
Format : AC-3
Format/Info : Audio Coding 3
Format settings, Endianness : Big
Muxing mode : Header stripping
Codec ID : A_AC3
Duration : 1 h 44 min
Bit rate mode : Constant
Bit rate : 256 kb/s
Channel(s) : 6 channels
Channel positions : Front: L C R, Side: L R, LFE
Sampling rate : 48.0 kHz
Frame rate : 31.250 FPS (1536 SPF)
Bit depth : 16 bits
Compression mode : Lossy
Stream size : 191 MiB (11%)
Title : Eng
Language : English
Service kind : Complete Main
Default : Yes
Forced : No

Text #1
ID : 3
Format : UTF-8
Codec ID : S_TEXT/UTF8
Codec ID/Info : UTF-8 Plain Text
Title : Eng
Language : English
Default : No
Forced : No

Text #2
ID : 4
Format : UTF-8
Codec ID : S_TEXT/UTF8
Codec ID/Info : UTF-8 Plain Text
Title : Thai
Language : Thai
Default : Yes
Forced : No

DOWNLOAD


PART01 |||| PART02

PART01 |||| PART02

PART01 |||| PART02

PART01 |||| PART02

PART01 |||| PART02


2 Comments
  1. Yuttachai Kosonmontri
    Yuttachai Kosonmontri says

    โหลดไม่ได้

    1. Admin
      Admin says

      แก้ไขเรียบร้อยฮ๊ะ

Leave A Reply

อีเมล์ของคุณจะไม่แสดงให้เห็น Your email address will not be published.

%d bloggers like this: