[ไทย] Pojaman Sawang Ka Ta (2020) พจมาน สว่างคาตา [1080p] [พากย์ไทย 2.0] [MP4] [ไม่มีบรรยาย] [เสียงไทย] [PANDAFILE]

2

โหลดหนัง Pojaman Sawang Ka Ta (2020) พจมาน สว่างคาตา

Pojaman Sawang Ka Ta (2020) 104min | Comedy | 3 June 2020 (Thailand) Summary: The horrifying and bloody horror story of Phochaman Sawatakata begins when Phojaman (Ko Tee Aram Boy), a cute little girl, travels from a rural country into Bangkok. In order to continue to... See full summary »
Countries: ThailandLanguages: Thai

เรื่องย่อ Pojaman Sawang Ka Ta (2020) พจมาน สว่างคาตา

เรื่องราวสุดวายป่วงและสยองพองเริ่มต้นขึ้นเมื่อ พจมาน (โก๊ะตี๋ อารามบอย) สาวน้อยผู้เรียบร้อยน่ารัก เดินทางจากบ้านนอกเข้ากรุงเทพฯ เพื่อมาเรียนหนังสือต่อตามความประสงค์ของบิดาที่สั่งไว้ก่อนเสียชีวิต โดยให้ไปอาศัยอยู่ที่คฤหาสน์บ้านดอกไม้ทองกับครอบครัวของ หม่อมอัมราภาแพรวพรรณนารายณ์พรรณาโวหารสมานจิต (จาตุรงค์ โพธาราม) ซึ่งมีศักดิ์เป็นหม่อมป้า และแล้วเมื่อพจมานเดินย่างกรายเข้ามาอยู่ที่บ้านดอกไม้ทอง เธอก็ได้พบกับ หญิงใหญ่เบ่อเริ่มเทิม (เอกชัย ศรีวิชัย), หญิงเล็กกระจิดริด (ยิ่งศักดิ์ จงเลิศเจษฎาวงศ์), ชายน้อยหนึ่ง (วีรดิษฐ์ ศรีมาลัย) ที่มีร่างกายพิการ ขาเป๋ ปากเบี้ยว และเหล่าบรรดาคนรับใช้ที่คอยกลั่นแกล้งพจมานสารพัด โดย แม่ช่อมณี (พชร์ อานนท์) หัวหน้าแม่บ้านซึ่งเป็นผู้กุมความลับสำคัญของบ้านดอกไม้ทอง เธอก้าวมาในบ้านอย่างที่ไม่คาดคิดว่าชีวิตของเธอนั้นกำลังตกอยู่ในในอันตราย! ทุกคนได้ร่วมกันวางแผนฆ่า พจมาน เพราะไม่อยากให้เธอมาแย่งมรดก แต่แผนการกลับล้มเหลวทุกคร้ัง จนกระทั่งจู่ ๆ พจมาน กลับลื่นตกบันไดลงไปตายเองต่อหน้าคนในบ้านเสียอย่างนั้นแล้วเรื่องราวสุดวุ่นวานครั้งนี้จะเป็นยังไงต่อติดตามได้ใน พจมาน สว่างคาตา

Complete name : Pojaman.Sawang.Ka.Ta.1080p.HDTV.WEB-DL.AAC.x264.One2loadup.com.mp4
Format : MPEG-4
Format profile : Base Media
Codec ID : isom (isom/iso2/avc1/mp41)
File size : 4.48 GiB
Duration : 1 h 39 min
Overall bit rate mode : Variable
Overall bit rate : 6 460 kb/s
Movie name : Pojaman.Sawang.Ka.Ta.1080p.HDTV.WEB-DL.AAC.x264.One2loadup.com

Video
ID : 1
Format : AVC
Format/Info : Advanced Video Codec
Format profile : [email protected]
Format settings : CABAC / 3 Ref Frames
Format settings, CABAC : Yes
Format settings, Reference : 3 frames
Format settings, GOP : M=1, N=91
Codec ID : avc1
Codec ID/Info : Advanced Video Coding
Duration : 1 h 39 min
Bit rate mode : Variable
Bit rate : 6 246 kb/s
Maximum bit rate : 16.0 Mb/s
Width : 1 920 pixels
Height : 1 080 pixels
Display aspect ratio : 16:9
Frame rate : 30.000 FPS
Color space : YUV
Chroma subsampling : 4:2:0
Bit depth : 8 bits
Scan type : Progressive
Bits/(Pixel*Frame) : 0.100
Stream size : 4.33 GiB (97%)
Tagged date : UTC 2021-04-17 03:31:43
Codec configuration box : avcC

Audio
ID : 2
Format : AAC LC
Format/Info : Advanced Audio Codec Low Complexity
Codec ID : mp4a-40-2
Duration : 1 h 39 min
Bit rate mode : Constant
Bit rate : 210 kb/s
Channel(s) : 2 channels
Channel layout : L R
Sampling rate : 44.1 kHz
Frame rate : 43.066 FPS (1024 SPF)
Compression mode : Lossy
Stream size : 149 MiB (3%)
Default : Yes
Alternate group : 1
Tagged date : UTC 2021-04-17 03:31:43

DOWNLOAD


PART01 |||| PART02 |||| PART03 |||| PART04 |||| PART05

PART01 |||| PART02 |||| PART03 |||| PART04 |||| PART05

PART01 |||| PART02 |||| PART03 |||| PART04 |||| PART05

PART01 |||| PART02 |||| PART03 |||| PART04 |||| PART05

PART01 |||| PART02 |||| PART03 |||| PART04 |||| PART05


2 Comments
  1. Ratchasak Puancamhai
    Ratchasak Puancamhai says

    เซ็ง เซ็นเซอร์เสียง รอต่อไป

    1. Admin
      Admin says

      เนื่องจากหนังเป็นแบบการอัดจาก TV ฮ๊ะ มันก็เลยมีการเซ็นเซอร์บางคำ ฮ๊ะ

Leave A Reply

Your email address will not be published.

%d bloggers like this: