[MINI-HD] เพื่อน..ที่ระลึก (2017) The Promise [1080p] [MASTER] [พากย์ไทย 5.1] [บรรยายไทย] [เสียงไทย + ซับไทย] [PANDAFILE]

3

โหลดหนัง เพื่อน..ที่ระลึก (2017) The Promise

The Promise | September 7, 2017 (Thailand) Summary: Ib and Boum decide to commit suicide together in Bangkok in 1997. After reneging on the promise, the vengeful ghost of Ib returns 20 years later to haunt Boum and her 15 year old daughter, B... Read all
Countries: ThailandLanguages: Thai

เรื่องย่อ เพื่อน..ที่ระลึก (2017) The Promise

“เพื่อน..ที่ระลึก” เมื่อ “คำสัญญา” และ “เพื่อนรัก” จะกลับมาทำให้คุณระลึกและระทึกไปพร้อมกัน พ.ศ. 2540 ปีที่ประเทศไทยต้องเผชิญกับฝันร้ายที่เรียกว่า “วิกฤตต้มยำกุ้ง” โศกนาฏกรรมทางการเงินครั้งสำคัญ ที่ทำให้ “นักธุรกิจร้อยล้าน” กลายเป็น “บุคคลล้มละลาย” ในชั่วข้ามคืน เช่นเดียวกับอิ๊บและบุ๋มที่ครอบครัวต้องพังไปพร้อมๆกัน เมื่อตึกคอนโดหรูใจกลางเมืองที่พ่อของพวกเธอลงทุนร่วมกัน ถูกระงับการก่อสร้างจากเศรษฐีกลายเป็นคนมีหนี้สินหลายร้อยล้าน บ้านที่เคยอยู่มาทั้งชีวิตก็ถูกยึดสมบัติในบ้านถูกนำมาเปิดท้ายขายของในราคาถูก อิ๊บและบุ๋มรับมือกับความล่มสลายของครอบครัวไม่ไหว จึงตัดสินใจจะฆ่าตัวตายพร้อมกัน บน “ตึก” ที่เคยสัญญาว่าจะอยู่ด้วยกันตลอดไป แต่คนที่ตายกลับเป็นแค่อิ๊บเพียงคนเดียว ผ่านไป 20 ปี บุ๋ม (บี น้ำทิพย์ จงรัชตวิบูลย์) เติบโตกลายเป็นนักธุรกิจด้านอสังหาริมทรัพย์ และได้กลับไปที่ตึกนั้นอีกครั้ง พร้อมกับ เบล (ลิลลี่ อภิชญา ทองคำ) ลูกสาวผู้เป็นทุกสิ่งทุกอย่างในชีวิตของเธอ คืนนั้นหลังกลับจากตึกก็เกิดเรื่องประหลาดขึ้นกับเบล เมื่อบุ๋มตื่นขึ้นมาพบเบลนั่งคุยกับใครบางคน แม้จะอยู่ในความมืด บุ๋มก็รู้ว่าที่นั่งฝั่งตรงข้ามของเบลว่างเปล่า ไม่มีใครเลย… แล้วทุกคืนหลังจากนั้นก็กลายเป็นฝันร้ายของบุ๋ม เมื่อทุกครั้งที่หลับตานอน เบลจะตื่นขึ้นมาด้วยอาการละเมอที่หนักขึ้นเรื่อยๆ และที่ร้ายแรงที่สุดก็คือ เบลจะละเมอพูดหรือทำในสิ่งที่ทำให้บุ๋มระลึกถึง อิ๊บ เพื่อนเก่า ที่เธอทิ้งให้รออยู่ที่ตึกอย่างโดดเดี่ยวมาเป็นเวลานาน นี่อาจเป็นการกลับมาทวงคำสัญญาสุดท้ายที่อิ๊บเคยขอไว้ก่อนจากโลกนี้ไป… “สัญญานะ ว่าแกจะไม่ปล่อยให้ฉันตายคนเดียว” พบผลงานเขย่าขวัญเรื่องใหม่จากผู้กำกับลัดดาแลนด์ กับภาพยนตร์ที่จะทำให้คุณระลึกถึงความกลัวทุกครั้งเมื่อต้องหลับตานอน!!!

Complete name : [MINI-HD]_The.Promise.2017.1080p.WEB-DL.AC3.x264.One2loadup.com.mkv
Format : Matroska
Format version : Version 4 / Version 2
File size : 3.94 GiB
Duration : 1 h 53 min
Overall bit rate : 4 961 kb/s
Movie name : [MINI-HD]_The.Promise.2017.1080p.WEB-DL.AC3.x264.One2loadup.com
Encoded date : UTC 2010-02-22 21:41:31
Writing application : mkvmerge v5.9.0 (‘On The Loose’) built on Dec 9 2012 15:37:01
Writing library : libebml v1.3.0 + libmatroska v1.4.0

Video
ID : 1
Format : AVC
Format/Info : Advanced Video Codec
Format profile : [email protected]
Format settings, CABAC : Yes
Format settings, RefFrames : 5 frames
Codec ID : V_MPEG4/ISO/AVC
Duration : 1 h 53 min
Bit rate : 4 478 kb/s
Width : 1 920 pixels
Height : 800 pixels
Display aspect ratio : 2.40:1
Frame rate mode : Constant
Frame rate : 24.000 FPS
Color space : YUV
Chroma subsampling : 4:2:0
Bit depth : 8 bits
Scan type : Progressive
Bits/(Pixel*Frame) : 0.121
Stream size : 3.55 GiB (90%)
Title : [MINI-HD]_The.Promise.2017.1080p.WEB-DL.AC3.x264.One2loadup.com
Language : Thai
Default : Yes
Forced : No
Color range : Limited
Color primaries : BT.709
Transfer characteristics : BT.709
Matrix coefficients : BT.709

Audio
ID : 2
Format : AC-3
Format/Info : Audio Coding 3
Format settings, Endianness : Big
Codec ID : A_AC3
Duration : 1 h 53 min
Bit rate mode : Constant
Bit rate : 384 kb/s
Channel(s) : 6 channels
Channel positions : Front: L C R, Side: L R, LFE
Sampling rate : 48.0 kHz
Frame rate : 31.250 FPS (1536 SPF)
Bit depth : 16 bits
Compression mode : Lossy
Stream size : 312 MiB (8%)
Language : Thai
Service kind : Complete Main
Default : Yes
Forced : Yes

Text
ID : 3
Format : VobSub
Codec ID : S_VOBSUB
Codec ID/Info : Picture based subtitle format used on DVDs
Language : Thai
Default : No
Forced : No

Menu
00:00:00.000 : en:1
00:06:56.000 : en:2
00:14:17.000 : en:3
00:21:36.000 : en:4
00:28:07.000 : en:5
00:36:25.000 : en:6
00:42:33.000 : en:7
00:48:53.000 : en:8
00:57:57.000 : en:9
01:03:17.000 : en:10
01:11:55.000 : en:11
01:19:34.000 : en:12
01:25:18.000 : en:13
01:32:24.000 : en:14
01:40:35.000 : en:15
01:47:49.000 : en:16

DOWNLOAD


PART01 |||| PART02 |||| PART03 |||| PART04

PART01 |||| PART02 |||| PART03 |||| PART04 

PART01 |||| PART02 |||| PART03 |||| PART04

PART01 |||| PART02 |||| PART03 |||| PART04

PART01 |||| PART02 |||| PART03 |||| PART04


3 Comments
  1. boyd says

    PART 3 โหลดไม่ได้ครับบผม

    1. Admin
      Admin says

      แก้ไขเรียบร้อยฮ๊ะ

      1. boyd says

        ขอบคุณครับผม

Leave A Reply

อีเมล์ของคุณจะไม่แสดงให้เห็น Your email address will not be published.

%d bloggers like this: