[เกาหลี] What Happened to Mr. Cha? (2021) ชาอินพโย สุภาพบุรุษสุดขั้ว [1080p] [NETFLIX] [พากย์เกาหลี 5.1] [Soundtrack บรรยายไทย] [เสียงเกาหลี + ซับไทย] [DOSYAUPLOAD]

0

โหลดหนัง What Happened to Mr. Cha? (2021) ชาอินพโย สุภาพบุรุษสุดขั้ว

What Happened to Mr Cha? (2021) 1h 42min | Comedy, Drama | 1 January 2021 (USA) Summary: Cha In-Pyo was once a popular actor, but he is not anymore. He struggles to regain his popularity.
Countries: South KoreaLanguages: Korean

เรื่องย่อ What Happened to Mr. Cha? (2021) ชาอินพโย สุภาพบุรุษสุดขั้ว

อดีตพระเอกคนดังผ่านจุดสูงสุดในวงการมานานแล้ว แต่ยังยึดติดอยู่กับภาพความรุ่งเรืองในอดีต เหตุการณ์พลิกผันปัจจุบันทันด่วนกลับบีบบังคับให้เขาต้องเผชิญหน้ากับตัวเอง

Complete name : What.Happened.to.Mr.Cha.2021.1080p.WEB-DL.EAC3.x264.Subthai.One2loadup.com.mkv
Format : Matroska
Format version : Version 4
File size : 3.88 GiB
Duration : 1 h 42 min
Overall bit rate : 5 431 kb/s
Movie name : What.Happened.to.Mr.Cha.2021.1080p.WEB-DL.EAC3.x264.Subthai.One2loadup.com
Encoded date : UTC 2021-01-01 08:39:35
Writing application : Lavf58.64.100
Writing library : Lavf58.64.100
ErrorDetectionType : Per level 1

Video
ID : 1
Format : AVC
Format/Info : Advanced Video Codec
Format profile : [email protected]
Format settings : CABAC / 2 Ref Frames
Format settings, CABAC : Yes
Format settings, ReFrames : 2 frames
Codec ID : V_MPEG4/ISO/AVC
Duration : 1 h 42 min
Bit rate : 4 744 kb/s
Width : 1 920 pixels
Height : 1 080 pixels
Display aspect ratio : 16:9
Frame rate mode : Constant
Frame rate : 23.976 (24000/1001) FPS
Color space : YUV
Chroma subsampling : 4:2:0
Bit depth : 8 bits
Scan type : Progressive
Bits/(Pixel*Frame) : 0.095
Stream size : 3.35 GiB (86%)
Title : What.Happened.to.Mr.Cha.2021.1080p.WEB-DL.EAC3.x264.Subthai.One2loadup.com
Writing library : x264 core 161 r3027
Encoding settings : cabac=1 / ref=2 / deblock=1:0:0 / analyse=0x1:0x131 / me=hex / subme=7 / psy=1 / psy_rd=1.00:0.00 / mixed_ref=0 / me_range=16 / chroma_me=1 / trellis=1 / 8x8dct=0 / cqm=0 / deadzone=21,11 / fast_pskip=1 / chroma_qp_offset=-2 / threads=24 / lookahead_threads=4 / sliced_threads=0 / nr=0 / decimate=1 / interlaced=0 / bluray_compat=0 / constrained_intra=0 / bframes=3 / b_pyramid=0 / b_adapt=1 / b_bias=0 / direct=0 / weightb=1 / open_gop=0 / weightp=2 / keyint=239 / keyint_min=23 / scenecut=40 / intra_refresh=0 / rc_lookahead=40 / rc=abr / mbtree=1 / bitrate=4744 / ratetol=1.0 / qcomp=0.60 / qpmin=10 / qpmax=69 / qpstep=4 / vbv_maxrate=5883 / vbv_bufsize=24000 / nal_hrd=none / filler=0 / ip_ratio=1.40 / aq=3:1.00
Default : Yes
Forced : No

Audio
ID : 2
Format : E-AC-3
Format/Info : Enhanced AC-3
Commercial name : Dolby Digital Plus
Codec ID : A_EAC3
Duration : 1 h 42 min
Bit rate mode : Constant
Bit rate : 640 kb/s
Channel(s) : 6 channels
Channel layout : L R C LFE Ls Rs
Sampling rate : 48.0 kHz
Frame rate : 31.250 FPS (1536 SPF)
Bit depth : 32 bits
Compression mode : Lossy
Stream size : 469 MiB (12%)
Title : Korean 5.1
Language : Korean
Service kind : Complete Main
Default : Yes
Forced : No

Text #1
ID : 3
Format : PGS
Codec ID : S_HDMV/PGS
Codec ID/Info : Picture based subtitle format used on BDs/HD-DVDs
Duration : 1 h 39 min
Language : Korean
Default : No
Forced : No

Text #2
ID : 4
Format : PGS
Codec ID : S_HDMV/PGS
Codec ID/Info : Picture based subtitle format used on BDs/HD-DVDs
Duration : 1 h 42 min
Language : English
Default : No
Forced : No

Text #3
ID : 5
Format : PGS
Codec ID : S_HDMV/PGS
Codec ID/Info : Picture based subtitle format used on BDs/HD-DVDs
Duration : 1 h 39 min
Language : Thai
Default : Yes
Forced : No

DOWNLOAD


PART01 |||| PART02 |||| PART03 |||| PART04

PART01 |||| PART02 |||| PART03 |||| PART04

PART01 |||| PART02 |||| PART03 |||| PART04

PART01 |||| PART02 |||| PART03 |||| PART04

PART01 |||| PART02 |||| PART03 |||| PART04



แจ้งหนังเสีย หรือโหลดไม่ได้ ทั้งลิ้งฟรีและ vip สามารถกดที่รูปด้านบนนี้ได้เลย

: Disable Comments
%d bloggers like this: