[เกาหลี] The Gangster, The Cop, The Devil (2019) [1080p] [พากย์เกาหลี 2.0] [Soundtrack บรรยายไทย] [เสียงเกาหลี + ซับไทย] [PANDAFILE]

2

โหลดหนัง The Gangster, The Cop, The Devil (2019)

The Gangster, the Cop, the Devil | May 15, 2019 (South Korea) Summary: A crime boss teams up with a cop to track down a serial killer.
Countries: South Korea, United StatesLanguages: Korean, English

เรื่องย่อ The Gangster, The Cop, The Devil (2019)

มาเฟีย ปะทะ ตำรวจ ปะทะ ฆาตกรต่อเนื่อง ในหนังใหม่ของลุงบึก มาดองซอกจางดองซู (Ma Dong-Seok) หัวหน้าแก๊งมาเฟียในชอนัน เขากลายเป็นเป้าหมายของฆาตกรต่อเนื่อง คังคยองโฮ (Kim Sung-Kyu) จางดองซู รอดตายและเขาเป็นคนเดียวที่รอดชีวิต จากการถูกหมายหัวจาก คังคยองโฮนักสืบจองแทซอก (Kim Moo-Yul) ที่แม้จะเกลียดสมาชิกแก๊งอาชญากรรม แต่เขาก็จำต้องทำงานร่วมกับ จางดองซูเพื่อจับฆาตกรต่อเนื่อง คังคยองโฮ ให้ได้

Complete name : The.Gangster.The.Cop.The.Devil.2019.1080p.BluRay.AC3.Subthai.One2loadup.com.mkv
Format : Matroska
Format version : Version 4
File size : 3.82 GiB
Duration : 1 h 50 min
Overall bit rate mode : Variable
Overall bit rate : 4 965 kb/s
Movie name : The.Gangster.The.Cop.The.Devil.2019.1080p.BluRay.AC3.Subthai.One2loadup.com
Encoded date : UTC 2019-12-25 18:18:33
Writing application : mkvmerge v41.0.0 (‘Smarra’) 64-bit
Writing library : libebml v1.3.9 + libmatroska v1.5.2

Video
ID : 1
Format : AVC
Format/Info : Advanced Video Codec
Format profile : [email protected]
Format settings : CABAC / 1 Ref Frames
Format settings, CABAC : Yes
Format settings, ReFrames : 1 frame
Codec ID : V_MPEG4/ISO/AVC
Duration : 1 h 50 min
Bit rate mode : Variable
Bit rate : 4 540 kb/s
Maximum bit rate : 13.5 Mb/s
Width : 1 920 pixels
Height : 800 pixels
Display aspect ratio : 2.40:1
Frame rate mode : Constant
Frame rate : 29.970 (29970/1000) FPS
Original frame rate : 29.970 (30000/1001) FPS
Color space : YUV
Chroma subsampling : 4:2:0
Bit depth : 8 bits
Scan type : Progressive
Bits/(Pixel*Frame) : 0.099
Stream size : 3.49 GiB (91%)
Title : The.Gangster.The.Cop.The.Devil.2019.1080p.BluRay.AC3.Subthai.One2loadup.com
Language : Korean
Default : Yes
Forced : No

Audio
ID : 2
Format : AC-3
Format/Info : Audio Coding 3
Commercial name : Dolby Digital
Codec ID : A_AC3
Duration : 1 h 50 min
Bit rate mode : Constant
Bit rate : 384 kb/s
Channel(s) : 2 channels
Channel layout : L R
Sampling rate : 48.0 kHz
Frame rate : 31.250 FPS (1536 SPF)
Bit depth : 16 bits
Compression mode : Lossy
Delay relative to video : -38 ms
Stream size : 302 MiB (8%)
Title : AC-3 Korean
Language : Korean
Service kind : Complete Main
Default : Yes
Forced : No

Text #1
ID : 3
Format : VobSub
Muxing mode : zlib
Codec ID : S_VOBSUB
Codec ID/Info : Picture based subtitle format used on DVDs
Duration : 1 h 45 min
Bit rate : 10.8 kb/s
Count of elements : 1285
Stream size : 8.12 MiB (0%)
Title : Sub English 1080p
Language : English
Default : No
Forced : No

Text #2
ID : 4
Format : UTF-8
Codec ID : S_TEXT/UTF8
Codec ID/Info : UTF-8 Plain Text
Duration : 1 h 45 min
Bit rate : 46 b/s
Count of elements : 1285
Stream size : 36.1 KiB (0%)
Title : Sub English SRT
Language : English
Default : No
Forced : No

Text #3
ID : 5
Format : PGS
Muxing mode : zlib
Codec ID : S_HDMV/PGS
Codec ID/Info : Picture based subtitle format used on BDs/HD-DVDs
Duration : 1 h 45 min
Bit rate : 26.4 kb/s
Count of elements : 2570
Stream size : 19.9 MiB (1%)
Title : PGS English
Language : English
Default : No
Forced : No

Text #4
ID : 6
Format : VobSub
Muxing mode : zlib
Codec ID : S_VOBSUB
Codec ID/Info : Picture based subtitle format used on DVDs
Duration : 1 h 45 min
Bit rate : 10.9 kb/s
Count of elements : 1285
Stream size : 8.23 MiB (0%)
Title : Sub Thai 1080p
Language : Thai
Default : No
Forced : No

Text #5
ID : 7
Format : UTF-8
Codec ID : S_TEXT/UTF8
Codec ID/Info : UTF-8 Plain Text
Duration : 1 h 45 min
Bit rate : 121 b/s
Count of elements : 1285
Stream size : 93.9 KiB (0%)
Title : Sub Thai SRT
Language : Thai
Default : No
Forced : No

Text #6
ID : 8
Format : PGS
Muxing mode : zlib
Codec ID : S_HDMV/PGS
Codec ID/Info : Picture based subtitle format used on BDs/HD-DVDs
Duration : 1 h 45 min
Bit rate : 30.1 kb/s
Count of elements : 2570
Stream size : 22.7 MiB (1%)
Title : PGS Thai
Language : Thai
Default : Yes
Forced : No

DOWNLOAD


PART01 |||| PART02 |||| PART03 |||| PART04

PART01 |||| PART02 |||| PART03 |||| PART04

PART01 |||| PART02 |||| PART03 |||| PART04

PART01 |||| PART02 |||| PART03 |||| PART04


2 Comments
  1. Akanit Sudjanthuek
    Akanit Sudjanthuek says

    อัพเรื่องนี้แบบไฟล์ ZOLO ให้ทีครับ

    1. Admin
      Admin says

      แก้ไขเรียบร้อยฮ๊ะ

Leave A Reply

อีเมล์ของคุณจะไม่แสดงให้เห็น Your email address will not be published.

%d bloggers like this: