[เกาหลี] Seobok (2021) ซอ บก มนุษย์อมตะ [1080p] [พากย์ไทยโรง 2.0] [ไม่มีบรรยาย] [เสียงไทยโรง] [PANDAFILE]

0

โหลดหนัง Seobok (2021) ซอ บก มนุษย์อมตะ

Seobok (2021) 114min | Action, Sci-Fi, Thriller | 15 April 2021 (South Korea) Summary: Ex intelligence agent Ki Heon is tasked with safely transporting Seo Bok, the first ever human clone, who holds the secret of eternal life. Several forces try to take control of Seo Bok to serve their own agendas.
Countries: South KoreaLanguages: Korean

เรื่องย่อ Seobok (2021) ซอ บก มนุษย์อมตะ

มินกีฮอน (กงยู) อดีตสายลับ ใช้ชีวิตอย่างโดดเดี่ยวมีแต่ความทรงจำแสนโหดร้ายอยู่ในหัว จนกระทั่งเขาถูกอดีตหัวหน้ามอบหมายให้คุ้มกัน ซอบก (พัคโบกอม) มนุษย์โคลนตัวแรกของโลกระหว่างการส่งตัวไปยังที่ปลอดภัย แต่มันไม่ได้ราบรื่นตามที่คิดเมื่อขบวนขนส่งถูกลอบโจมตี กีฮอน และ ซอบก หนีมาได้แต่ก็มีอันตรายรอพวกเขาอยู่ทุกหัวมุม เมื่อ ซอบก ที่ใช้ชีวิตแต่ในห้องทดลองมาตลอดได้ออกมาเห็นโลกภายนอกเป็นครั้งแรก ขณะที่ กีฮอน ต้องการทำภารกิจให้เสร็จเร็วที่สุดเท่าที่เป็นไปได้ ทำให้สองคนปะทะอารมณ์กันอยู่เสมอ ซอบก ถูกคนหลายกลุ่มตามล่า เพราะเขาคือ อนาคตของมนุษยชาติแต่ขณะเดียวกันก็เป็นภัยอันตรายอย่างใหญ่หลวง เมื่อต้องเดิมพันด้วยอนาคตของโลก กีฮอน และ ซอบก ต้องเผชิญกับการตัดสินใจครั้งสำคัญที่ไม่อาจจะหลีกเลี่ยงได้

Complete name : Seobok.2021.1080p.WEB-DL.AC3.x264.THR.One2loadup.com.mkv
Format : Matroska
Format version : Version 4
File size : 3.61 GiB
Duration : 1 h 49 min
Overall bit rate : 4 716 kb/s
Movie name : Seobok.2021.1080p.WEB-DL.AC3.x264.THR.One2loadup.com
Encoded date : UTC 2021-04-18 03:14:09
Writing application : mkvmerge v43.0.0 (‘The Quartermaster’) 64-bit
Writing library : libebml v1.3.10 + libmatroska v1.5.2

Video
ID : 1
Format : AVC
Format/Info : Advanced Video Codec
Format profile : [email protected]
Format settings : CABAC / 5 Ref Frames
Format settings, CABAC : Yes
Format settings, Reference : 5 frames
Codec ID : V_MPEG4/ISO/AVC
Duration : 1 h 49 min
Bit rate : 4 523 kb/s
Width : 1 920 pixels
Height : 804 pixels
Display aspect ratio : 2.40:1
Frame rate mode : Constant
Frame rate : 25.000 FPS
Color space : YUV
Chroma subsampling : 4:2:0
Bit depth : 8 bits
Scan type : Progressive
Bits/(Pixel*Frame) : 0.117
Stream size : 3.46 GiB (96%)
Title : Seobok.2021.1080p.WEB-DL.AC3.x264.THR.One2loadup.com
Language : English
Default : Yes
Forced : No
Color range : Limited
Color primaries : BT.709
Transfer characteristics : BT.709
Matrix coefficients : BT.709

Audio
ID : 2
Format : AC-3
Format/Info : Audio Coding 3
Commercial name : Dolby Digital
Codec ID : A_AC3
Duration : 1 h 49 min
Bit rate mode : Constant
Bit rate : 192 kb/s
Channel(s) : 2 channels
Channel layout : L R
Sampling rate : 48.0 kHz
Frame rate : 31.250 FPS (1536 SPF)
Compression mode : Lossy
Stream size : 151 MiB (4%)
Title : THR
Language : Thai
Service kind : Complete Main
Default : Yes
Forced : No

Menu
00:00:00.000 : en: 1
00:08:00.840 : en: 2
00:16:24.840 : en: 3
00:24:49.400 : en: 4
00:33:04.040 : en: 5
00:41:38.839 : en: 6
00:49:48.439 : en: 7
00:58:43.279 : en: 8
01:07:32.999 : en: 9
01:15:56.719 : en: 10
01:24:03.159 : en: 11
01:32:35.039 : en: 12
01:41:10.559 : en: 13

DOWNLOAD


PART01 |||| PART02 |||| PART03 |||| PART04

PART01 |||| PART02 |||| PART03 |||| PART04

PART01 |||| PART02 |||| PART03 |||| PART04

PART01 |||| PART02 |||| PART03 |||| PART04

PART01 |||| PART02 |||| PART03 |||| PART04


Leave A Reply

Your email address will not be published.

%d bloggers like this: