[เกาหลี] Ashfall (2019) นรกล้างเมือง [1080p] [พากย์ไทย 5.1 + เสียงเกาหลี 2.0] [บรรยายไทย + อังกฤษ] [เสียงไทย + ซับไทย] [PANDAFILE]

0

โหลดหนัง Ashfall (2019) นรกล้างเมือง

Ashfall (2019) 2h 10min | Action, Drama, Thriller | 19 December 2019 (South Korea) Summary: Stagnant since 1903, at an elevation of 2,744 m, a volcano erupts on the mythical and majestic Baekdu Mountain.
Countries: South KoreaLanguages: Korean, English, Chinese

เรื่องย่อ Ashfall (2019) นรกล้างเมือง

Ashfall เล่าเรื่องเมื่อ ภูเขาไฟเพ็กทู ที่สูงที่สุดในเกาหลีเกิดปะทุขึ้นนำไปสู่ภัยพิบัติสั ่นสะเทือนแผ่นดินเกาหลีอย่างไม่มีใครคาดคิด และยังส่งขี้เถ้าขึ้นไปสูงถึงชั้นบรรยากาศเกิดวิบัติ ไปทั่วกรุงโซลและกรุงเปียงยาง ดังนั้นเพื่อรับมือหายนะครั้งนี้ ผู้เชียวชาญด้านวัตถุระเบิดชาวเกาหลีใต้ จึงต้องร่วมมือกับ เจ้าหน้าที่พิเศษชาวเกาหลีเหนือ และ นักธรณีวิทยาอันดับหนึ่งของประเทศ เพื่อหยุดยั้งเหตุวินาศที่อาจจะทำให้เกาหลีหายไปจากแผนที่โลก

Complete name : Ashfall.2019.1080p.WEBRip.AAC.H264.One2loadup.com.mkv
Format : Matroska
Format version : Version 4
File size : 5.27 GiB
Duration : 2 h 8 min
Overall bit rate : 5 894 kb/s
Movie name : Ashfall.2019.1080p.WEBRip.AAC.H264.One2loadup.com
Encoded date : UTC 2020-05-09 09:43:02
Writing application : mkvmerge v38.0.0 (‘The Silent Type’) 64-bit
Writing library : libebml v1.3.9 + libmatroska v1.5.2

Video
ID : 1
Format : AVC
Format/Info : Advanced Video Codec
Format profile : [email protected]
Format settings : CABAC / 4 Ref Frames
Format settings, CABAC : Yes
Format settings, ReFrames : 4 frames
Format settings, GOP : M=4, N=23
Codec ID : V_MPEG4/ISO/AVC
Duration : 2 h 8 min
Bit rate : 5 120 kb/s
Width : 1 920 pixels
Height : 1 080 pixels
Display aspect ratio : 16:9
Frame rate mode : Constant
Frame rate : 23.976 (24000/1001) FPS
Color space : YUV
Chroma subsampling : 4:2:0
Bit depth : 8 bits
Scan type : Progressive
Bits/(Pixel*Frame) : 0.103
Stream size : 4.58 GiB (87%)
Title : Ashfall.2019.1080p.WEBRip.AAC.H264.One2loadup.com
Default : Yes
Forced : No

Audio #1
ID : 2
Format : AAC LC
Format/Info : Advanced Audio Codec Low Complexity
Codec ID : A_AAC-2
Duration : 2 h 8 min
Bit rate : 320 kb/s
Channel(s) : 2 channels
Channel layout : L R
Sampling rate : 48.0 kHz
Frame rate : 46.875 FPS (1024 SPF)
Compression mode : Lossy
Delay relative to video : 8 ms
Stream size : 293 MiB (5%)
Language : Korean
Default : Yes
Forced : No

Audio #2
ID : 5
Format : AC-3
Format/Info : Audio Coding 3
Commercial name : Dolby Digital
Codec ID : A_AC3
Duration : 2 h 8 min
Bit rate mode : Constant
Bit rate : 448 kb/s
Channel(s) : 6 channels
Channel layout : L R C LFE Ls Rs
Sampling rate : 48.0 kHz
Frame rate : 31.250 FPS (1536 SPF)
Bit depth : 16 bits
Compression mode : Lossy
Stream size : 410 MiB (8%)
Language : Thai
Service kind : Complete Main
Default : No
Forced : No

Text #1
ID : 3
Format : UTF-8
Codec ID : S_TEXT/UTF8
Codec ID/Info : UTF-8 Plain Text
Duration : 2 h 3 min
Bit rate : 49 b/s
Count of elements : 1697
Stream size : 44.7 KiB (0%)
Language : English
Default : No
Forced : No

Text #2
ID : 4
Format : VobSub
Muxing mode : zlib
Codec ID : S_VOBSUB
Codec ID/Info : Picture based subtitle format used on DVDs
Duration : 2 h 3 min
Bit rate : 4 489 b/s
Count of elements : 1588
Stream size : 3.96 MiB (0%)
Language : Thai
Default : Yes
Forced : No

DOWNLOAD


PART01 |||| PART02 |||| PART03 |||| PART04 |||| PART05 |||| PART06

PART01 |||| PART02 |||| PART03 |||| PART04 |||| PART05 |||| PART06

PART01 |||| PART02 |||| PART03 |||| PART04 |||| PART05 |||| PART06

PART01 |||| PART02 |||| PART03 |||| PART04 |||| PART05 |||| PART06

PART01 |||| PART02 |||| PART03 |||| PART04 |||| PART05 |||| PART06


Leave A Reply

Your email address will not be published.

%d bloggers like this: