[อินเดีย] Romeo Akbar Walter (2019) ปฏิบัติการสะท้านแผ่นดิน [1080p] [Netflix] [พากย์อินเดีย 5.1] [Soundtrack บรรยายไทย] [เสียงอินเดีย + ซับไทย] [OPENLOAD]

0

Romeo Akbar Walter (2019)

โหลดหนัง Romeo Akbar Walter (2019) ปฏิบัติการสะท้านแผ่นดิน

Romeo Akbar Walter (2019) 2h 21min | Action, Drama, Thriller | 5 April 2019 (India) Summary: During the India-Pakistan war of 1971, an Indian banker is recruited by RAW (Research and Analysis Wing) for a covert operation deep inside Pakistan.
Countries: IndiaLanguages: Hindi

เรื่องย่อ Romeo Akbar Walter (2019) ปฏิบัติการสะท้านแผ่นดิน

ในปี 1971 ลูกชายของพันตรีทหารบกที่เสียชีวิตได้รับการทาบทามจากกองวิจัยและวิเคราะห์ของอินเดียให้ไปปฏิบัติการลับในปากีสถาน ช่วงก่อนสงครามระหว่างสองประเทศ….!!

Complete name : Romeo.Akbar.Walter.2019.1080p.NF.WEB-DL.AC3.x264.Hindi.One2loadup.com.mkv
Format : Matroska
Format version : Version 4
File size : 3.68 GiB
Duration : 2 h 20 min
Overall bit rate mode : Variable
Overall bit rate : 3 734 kb/s
Movie name : Romeo.Akbar.Walter.2019.1080p.NF.WEB-DL.AC3.x264.Hindi.One2loadup.com
Encoded date : UTC 2019-07-03 17:41:35
Writing application : mkvmerge v8.3.0 (‘Over the Horizon’) 64bit
Writing library : libebml v1.3.1 + libmatroska v1.4.2

Video
ID : 1
Format : AVC
Format/Info : Advanced Video Codec
Format profile : [email protected]
Format settings : CABAC / 4 Ref Frames
Format settings, CABAC : Yes
Format settings, ReFrames : 4 frames
Codec ID : V_MPEG4/ISO/AVC
Duration : 2 h 20 min
Bit rate mode : Variable
Bit rate : 3 011 kb/s
Maximum bit rate : 20.0 Mb/s
Width : 1 920 pixels
Height : 1 080 pixels
Display aspect ratio : 16:9
Frame rate mode : Constant
Frame rate : 24.000 FPS
Color space : YUV
Chroma subsampling : 4:2:0
Bit depth : 8 bits
Scan type : Progressive
Bits/(Pixel*Frame) : 0.061
Stream size : 2.96 GiB (81%)
Title : Romeo.[email protected]Prawit9730
Writing library : x264 core 148 r2715 7e75228
Encoding settings : cabac=1 / ref=4 / deblock=1:0:0 / analyse=0x3:0x111 / me=umh / subme=10 / psy=1 / psy_rd=1.00:0.00 / mixed_ref=1 / me_range=120 / chroma_me=1 / trellis=2 / 8x8dct=1 / cqm=0 / deadzone=21,11 / fast_pskip=1 / chroma_qp_offset=-2 / threads=8 / lookahead_threads=2 / sliced_threads=0 / nr=0 / decimate=1 / interlaced=0 / bluray_compat=0 / stitchable=1 / constrained_intra=0 / bframes=16 / b_pyramid=2 / b_adapt=2 / b_bias=0 / direct=3 / weightb=1 / open_gop=0 / weightp=2 / keyint=240 / keyint_min=121 / scenecut=0 / intra_refresh=0 / rc_lookahead=240 / rc=crf / mbtree=1 / crf=16.0 / qcomp=0.50 / qpmin=6 / qpmax=51 / qpstep=4 / vbv_maxrate=20000 / vbv_bufsize=25000 / crf_max=0.0 / nal_hrd=vbr / filler=0 / ip_ratio=1.40 / aq=1:0.80
Language : English
Default : Yes
Forced : No

Audio
ID : 2
Format : E-AC-3
Format/Info : Enhanced AC-3
Commercial name : Dolby Digital Plus
Codec ID : A_EAC3
Duration : 2 h 20 min
Bit rate mode : Constant
Bit rate : 640 kb/s
Channel(s) : 6 channels
Channel layout : L R C LFE Ls Rs
Sampling rate : 48.0 kHz
Frame rate : 31.250 FPS (1536 SPF)
Compression mode : Lossy
Stream size : 645 MiB (17%)
Title : Hindi 5.1
Language : Hindi
Service kind : Complete Main
Default : Yes
Forced : No

Text #1
ID : 3
Format : VobSub
Muxing mode : zlib
Codec ID : S_VOBSUB
Codec ID/Info : Picture based subtitle format used on DVDs
Duration : 2 h 14 min
Bit rate : 1 380 b/s
Count of elements : 1173
Stream size : 1.33 MiB (0%)
Title : Thai 480P
Language : Thai
Default : No
Forced : No

Text #2
ID : 4
Format : VobSub
Muxing mode : zlib
Codec ID : S_VOBSUB
Codec ID/Info : Picture based subtitle format used on DVDs
Duration : 2 h 14 min
Bit rate : 2 476 b/s
Count of elements : 1173
Stream size : 2.38 MiB (0%)
Title : Thai 720P
Language : Thai
Default : No
Forced : No

Text #3
ID : 5
Format : VobSub
Muxing mode : zlib
Codec ID : S_VOBSUB
Codec ID/Info : Picture based subtitle format used on DVDs
Duration : 2 h 14 min
Bit rate : 4 043 b/s
Count of elements : 1173
Stream size : 3.89 MiB (0%)
Title : Thai 1080P
Language : Thai
Default : Yes
Forced : No

Text #4
ID : 6
Format : VobSub
Muxing mode : zlib
Codec ID : S_VOBSUB
Codec ID/Info : Picture based subtitle format used on DVDs
Duration : 2 h 14 min
Bit rate : 5 040 b/s
Count of elements : 1173
Stream size : 4.85 MiB (0%)
Title : Thai 1080P BIG
Language : Thai
Default : No
Forced : No

Text #5
ID : 7
Format : VobSub
Muxing mode : zlib
Codec ID : S_VOBSUB
Codec ID/Info : Picture based subtitle format used on DVDs
Duration : 2 h 14 min
Bit rate : 4 043 b/s
Count of elements : 1173
Stream size : 3.89 MiB (0%)
Title : Thai 1080P OUT
Language : Thai
Default : No
Forced : No

Text #6
ID : 8
Format : VobSub
Muxing mode : zlib
Codec ID : S_VOBSUB
Codec ID/Info : Picture based subtitle format used on DVDs
Duration : 2 h 14 min
Bit rate : 5 040 b/s
Count of elements : 1173
Stream size : 4.85 MiB (0%)
Title : Thai 1080P BIG[OUT]
Language : Thai
Default : No
Forced : No

Text #7
ID : 9
Format : VobSub
Muxing mode : zlib
Codec ID : S_VOBSUB
Codec ID/Info : Picture based subtitle format used on DVDs
Duration : 2 h 14 min
Bit rate : 4 049 b/s
Count of elements : 1173
Stream size : 3.90 MiB (0%)
Title : Thai 1080P Yellow
Language : Thai
Default : No
Forced : No

Text #8
ID : 10
Format : UTF-8
Codec ID : S_TEXT/UTF8
Codec ID/Info : UTF-8 Plain Text
Duration : 2 h 12 min
Bit rate : 37 b/s
Count of elements : 1055
Stream size : 36.5 KiB (0%)
Title : English
Language : English
Default : No
Forced : No

Text #9
ID : 11
Format : PGS
Muxing mode : zlib
Codec ID : S_HDMV/PGS
Codec ID/Info : Picture based subtitle format used on BDs/HD-DVDs
Duration : 2 h 14 min
Bit rate : 13.7 kb/s
Count of elements : 2346
Stream size : 13.2 MiB (0%)
Title : Thai PGS
Language : Thai
Default : No
Forced : No

Text #10
ID : 12
Format : PGS
Muxing mode : zlib
Codec ID : S_HDMV/PGS
Codec ID/Info : Picture based subtitle format used on BDs/HD-DVDs
Duration : 2 h 14 min
Bit rate : 17.4 kb/s
Count of elements : 2346
Stream size : 16.7 MiB (0%)
Title : Thai PGS BIG
Language : Thai
Default : No
Forced : No

Text #11
ID : 13
Format : PGS
Muxing mode : zlib
Codec ID : S_HDMV/PGS
Codec ID/Info : Picture based subtitle format used on BDs/HD-DVDs
Duration : 2 h 14 min
Bit rate : 13.7 kb/s
Count of elements : 2346
Stream size : 13.2 MiB (0%)
Title : Thai PGS OUT
Language : Thai
Default : No
Forced : No

Text #12
ID : 14
Format : PGS
Muxing mode : zlib
Codec ID : S_HDMV/PGS
Codec ID/Info : Picture based subtitle format used on BDs/HD-DVDs
Duration : 2 h 14 min
Bit rate : 13.8 kb/s
Count of elements : 2346
Stream size : 13.3 MiB (0%)
Title : Thai PGS Yellow
Language : Thai
Default : No
Forced : No

DOWNLOAD


PART01 |||| PART02 |||| PART03 |||| PART04

PART01 |||| PART02 |||| PART03 |||| PART04

PART01 |||| PART02 |||| PART03 |||| PART04

PART01 |||| PART02 |||| PART03 |||| PART04


Leave A Reply

Your email address will not be published.