[ฝรั่ง] Zombies 2 (2020) ซอมบี้ ภาค 2 [1080p] [พากย์ไทย 5.1+ เสียงอังกฤษ 5.1] [บรรยายอังกฤษ] [เสียงไทย + ซับไทย] [PANDAFILE]

0

โหลดหนัง Zombies 2 (2020) ซอมบี้ ภาค 2

Z-O-M-B-I-E-S 2 (2020) 1h 24min | Comedy, Musical, Romance | TV Movie 18 April 2020 Summary: The continuing adventures of Seabrook High students Addison and Zed, whose budding romance is threatened by the arrival of werewolves.
Countries: USALanguages: English

เรื่องย่อ Zombies 2 (2020) ซอมบี้ ภาค 2

Zed และ Addison กลับมาที่ Seabrook High อีกครั้ง หลังจากภาคการศึกษาก่อนที่ก้าวข้ามการแบ่งแยก พวกเขายังคงนำทั้งโรงเรียนและชุมชนไปสู่ความสามัคคี แต่การมาถึงของกลุ่มคนนอกกลุ่มใหม่ – มนุษย์หมาป่าลึกลับ – ขู่ว่าจะสั่นคลอนสันติภาพที่เพิ่งค้นพบใหม่และทำให้เ กิดความแตกแยกในความโรแมนติกของ Zed และ Addison

Complete name : Zombies.2.2020.1080p.AMZN.WEB-DL.AC3.H.264.THM.One2loadup.com.mkv
Format : Matroska
Format version : Version 4
File size : 5.85 GiB
Duration : 1 h 23 min
Overall bit rate : 9 985 kb/s
Movie name : Zombies.2.2020.1080p.AMZN.WEB-DL.AC3.H.264.THM.One2loadup.com
Encoded date : UTC 2020-05-17 13:40:33
Writing application : mkvmerge v46.0.0 (‘No Deeper Escape’) 64-bit
Writing library : libebml v1.3.10 + libmatroska v1.5.2

Video
ID : 1
Format : AVC
Format/Info : Advanced Video Codec
Format profile : [email protected]
Format settings : CABAC / 4 Ref Frames
Format settings, CABAC : Yes
Format settings, ReFrames : 4 frames
Codec ID : V_MPEG4/ISO/AVC
Duration : 1 h 23 min
Bit rate mode : Constant
Bit rate : 8 703 kb/s
Nominal bit rate : 10 000 kb/s
Width : 1 920 pixels
Height : 800 pixels
Display aspect ratio : 2.40:1
Frame rate mode : Constant
Frame rate : 23.976 (24000/1001) FPS
Color space : YUV
Chroma subsampling : 4:2:0
Bit depth : 8 bits
Scan type : Progressive
Bits/(Pixel*Frame) : 0.236
Stream size : 5.10 GiB (87%)
Title : Zombies.2.2020.1080p.AMZN.WEB-DL.AC3.H.264.THM.One2loadup.com
Language : English
Default : Yes
Forced : No
Color range : Limited
Color primaries : BT.709
Transfer characteristics : BT.709
Matrix coefficients : BT.709

Audio #1
ID : 2
Format : AC-3
Format/Info : Audio Coding 3
Commercial name : Dolby Digital
Codec ID : A_AC3
Duration : 1 h 23 min
Bit rate mode : Constant
Bit rate : 640 kb/s
Channel(s) : 6 channels
Channel layout : L R C LFE Ls Rs
Sampling rate : 48.0 kHz
Frame rate : 31.250 FPS (1536 SPF)
Bit depth : 16 bits
Compression mode : Lossy
Stream size : 384 MiB (6%)
Title : Thai AC3 5.1
Language : Thai
Service kind : Complete Main
Default : Yes
Forced : No

Audio #2
ID : 3
Format : E-AC-3
Format/Info : Enhanced AC-3
Commercial name : Dolby Digital Plus
Codec ID : A_EAC3
Duration : 1 h 23 min
Bit rate mode : Constant
Bit rate : 640 kb/s
Channel(s) : 6 channels
Channel layout : L R C LFE Ls Rs
Sampling rate : 48.0 kHz
Frame rate : 31.250 FPS (1536 SPF)
Compression mode : Lossy
Stream size : 384 MiB (6%)
Title : Eng E-AC3 5.1
Language : English
Service kind : Complete Main
Default : No
Forced : No

Text #1
ID : 4
Format : UTF-8
Codec ID : S_TEXT/UTF8
Codec ID/Info : UTF-8 Plain Text
Duration : 1 h 23 min
Bit rate : 29 b/s
Count of elements : 558
Stream size : 17.8 KiB (0%)
Title : Song
Language : English
Default : Yes
Forced : Yes

Text #2
ID : 5
Format : UTF-8
Codec ID : S_TEXT/UTF8
Codec ID/Info : UTF-8 Plain Text
Duration : 1 h 23 min
Bit rate : 77 b/s
Count of elements : 1582
Stream size : 47.1 KiB (0%)
Language : English
Default : No
Forced : No

DOWNLOAD


PART01 |||| PART02 |||| PART03 |||| PART04 |||| PART05 |||| PART06 |||| PART07

PART01 |||| PART02 |||| PART03 |||| PART04 |||| PART05 |||| PART06 |||| PART07

PART01 |||| PART02 |||| PART03 |||| PART04 |||| PART05 |||| PART06 |||| PART07

PART01 |||| PART02 |||| PART03 |||| PART04 |||| PART05 |||| PART06 |||| PART07

PART01 |||| PART02 |||| PART03 |||| PART04 |||| PART05 |||| PART06 |||| PART07


Leave A Reply

Your email address will not be published.

%d bloggers like this: