[ฝรั่ง] Zapped (2014) สาวแซ่บแรงเซี้ยว [1080p] [NETFLIX] [พากย์อังกฤษ 5.1] [Soundtrack บรรยายไทย] [เสียงอังกฤษ + ซับไทย] [PANDAFILE]

0

โหลดหนัง Zapped (2014) สาวแซ่บแรงเซี้ยว

Zapped (2014) 1h 42min | Comedy, Family, Fantasy | TV Movie 23 June 2014 Summary: When Zoey's mom remarries, Zoey finds it hard adjusting to her new life - no longer the only kid in the family.
Countries: Canada, USALanguages: English

เรื่องย่อ Zapped (2014) สาวแซ่บแรงเซี้ยว

เด็กสาวคนหนึ่งค้นพบแอพสำหรับฝึกสุนัขที่สามารถทำให้ หนุ่มๆ สยบแทบเท้าทำตามคำสั่งของเธอทุกอย่าง แต่เธอได้พบว่าแอพนี่ไม่ใช่ยาครอบจักรวาลที่สามารถทำทุกอย่างที่เธอหวัง

Complete name : Zapped.2014.1080p.NETFLIX.WEB-DL.AC3.Subthai.One2loadup.com.mkv
Format : Matroska
Format version : Version 4
File size : 3.36 GiB
Duration : 1 h 32 min
Overall bit rate : 5 209 kb/s
Movie name : Zapped.2014.1080p.NETFLIX.WEB-DL.AC3.Subthai.One2loadup.com
Encoded date : UTC 2020-05-23 14:12:06
Writing application : mkvmerge v46.0.0 (‘No Deeper Escape’) 64-bit
Writing library : libebml v1.3.10 + libmatroska v1.5.2

Video
ID : 1
Format : AVC
Format/Info : Advanced Video Codec
Format profile : [email protected]
Format settings : CABAC / 3 Ref Frames
Format settings, CABAC : Yes
Format settings, ReFrames : 3 frames
Codec ID : V_MPEG4/ISO/AVC
Duration : 1 h 32 min
Bit rate : 4 504 kb/s
Width : 1 920 pixels
Height : 1 080 pixels
Display aspect ratio : 16:9
Frame rate mode : Constant
Frame rate : 23.976 (24000/1001) FPS
Color space : YUV
Chroma subsampling : 4:2:0
Bit depth : 8 bits
Scan type : Progressive
Bits/(Pixel*Frame) : 0.091
Stream size : 2.91 GiB (86%)
Title : Zapped.2014.1080p.NETFLIX.WEB-DL.AC3.Subthai.One2loadup.com
Language : English
Default : Yes
Forced : No

Audio
ID : 2
Format : E-AC-3
Format/Info : Enhanced AC-3
Commercial name : Dolby Digital Plus
Codec ID : A_EAC3
Duration : 1 h 32 min
Bit rate mode : Constant
Bit rate : 640 kb/s
Channel(s) : 6 channels
Channel layout : L R C LFE Ls Rs
Sampling rate : 48.0 kHz
Frame rate : 31.250 FPS (1536 SPF)
Compression mode : Lossy
Delay relative to video : 12 ms
Stream size : 423 MiB (12%)
Title : AC-3 English
Language : English
Service kind : Complete Main
Default : Yes
Forced : No

Text #1
ID : 3
Format : VobSub
Muxing mode : zlib
Codec ID : S_VOBSUB
Codec ID/Info : Picture based subtitle format used on DVDs
Duration : 1 h 32 min
Bit rate : 12.3 kb/s
Count of elements : 1269
Stream size : 8.09 MiB (0%)
Title : Sub Thai 1080p
Language : Thai
Default : No
Forced : No

Text #2
ID : 4
Format : UTF-8
Codec ID : S_TEXT/UTF8
Codec ID/Info : UTF-8 Plain Text
Duration : 1 h 32 min
Bit rate : 139 b/s
Count of elements : 1269
Stream size : 94.5 KiB (0%)
Title : Sub Thai SRT
Language : Thai
Default : No
Forced : No

Text #3
ID : 5
Format : PGS
Muxing mode : zlib
Codec ID : S_HDMV/PGS
Codec ID/Info : Picture based subtitle format used on BDs/HD-DVDs
Duration : 1 h 32 min
Bit rate : 40.2 kb/s
Count of elements : 2538
Stream size : 26.5 MiB (1%)
Title : Sub Thai PGS
Language : Thai
Default : Yes
Forced : No

Text #4
ID : 6
Format : VobSub
Muxing mode : zlib
Codec ID : S_VOBSUB
Codec ID/Info : Picture based subtitle format used on DVDs
Duration : 1 h 31 min
Bit rate : 18.2 kb/s
Count of elements : 2680
Stream size : 11.9 MiB (0%)
Title : Sub English 1080p
Language : English
Default : No
Forced : No

Text #5
ID : 7
Format : UTF-8
Codec ID : S_TEXT/UTF8
Codec ID/Info : UTF-8 Plain Text
Duration : 1 h 31 min
Bit rate : 151 b/s
Count of elements : 2680
Stream size : 101 KiB (0%)
Title : Sub English SRT
Language : English
Default : No
Forced : No

Text #6
ID : 8
Format : PGS
Muxing mode : zlib
Codec ID : S_HDMV/PGS
Codec ID/Info : Picture based subtitle format used on BDs/HD-DVDs
Duration : 1 h 31 min
Bit rate : 55.5 kb/s
Count of elements : 5360
Stream size : 36.3 MiB (1%)
Title : Sub English PGS
Language : English
Default : No
Forced : No

DOWNLOAD


PART01 |||| PART02 |||| PART03 |||| PART04

PART01 |||| PART02 |||| PART03 |||| PART04

PART01 |||| PART02 |||| PART03 |||| PART04

PART01 |||| PART02 |||| PART03 |||| PART04

PART01 |||| PART02 |||| PART03 |||| PART04



แจ้งหนังเสีย หรือโหลดไม่ได้ ทั้งลิ้งฟรีและ vip สามารถกดที่รูปด้านบนนี้ได้เลย

: Disable Comments
%d bloggers like this: