[ฝรั่ง] You Should Have Left (2020) บ้านหลอน ฝันผวา [1080p] [พากย์อังกฤษ 5.1] [Soundtrack บรรยายไทย + อังกฤษ] [เสียงอังกฤษ + ซับไทย] [PANDAFILE]

0

โหลดหนัง You Should Have Left (2020) บ้านหลอน ฝันผวา

You Should Have Left (2020) 1h 33min | Drama, Horror, Mystery | 18 June 2020 (USA) Summary: A former banker, his actress wife, and their spirited daughter book a vacation at an isolated modern home in the Welsh countryside where nothing is quite as it seems.
Countries: USA, UKLanguages: English

เรื่องย่อ You Should Have Left (2020) บ้านหลอน ฝันผวา

ธีโอ (เควิน เบคอน) อดีตนายธนาคารผู้ร่ำรวยและ ซูซานน่า (อแมนด้า ไซย์ฟริด) ภรรยานักแสดงสาว พร้อมกับลูกสาวของพวกเขาได้เดินทางไปยังบ้านพักอันหรูหราในชนบทที่จองไว้ แต่แล้วพวกเขาก็ต้องพบกับเหตุการณ์สยองขวัญและความแปลกประหลาดของบ้านที่ทุกอย่างไม่มีอะไรเหมือนอย่างที่เห็น

Complete name : You.Should.Have.Left.2020.1080p.AMZN.WEB-DL.EAC3.x264.Subthai.One2loadup.com.mkv
Format : Matroska
Format version : Version 4
File size : 5.10 GiB
Duration : 1 h 33 min
Overall bit rate : 7 805 kb/s
Movie name : You.Should.Have.Left.2020.1080p.AMZN.WEB-DL.EAC3.x264.Subthai.One2loadup.com
Encoded date : UTC 2020-09-17 23:20:01
Writing application : mkvmerge v50.0.0 (‘Awakenings’) 64-bit
Writing library : libebml v1.4.0 + libmatroska v1.6.2
Cover : Yes
Attachments : cover

Video
ID : 1
Format : AVC
Format/Info : Advanced Video Codec
Format profile : [email protected]
Format settings : CABAC / 4 Ref Frames
Format settings, CABAC : Yes
Format settings, ReFrames : 4 frames
Codec ID : V_MPEG4/ISO/AVC
Duration : 1 h 33 min
Bit rate mode : Constant
Bit rate : 7 142 kb/s
Nominal bit rate : 10 000 kb/s
Width : 1 920 pixels
Height : 1 040 pixels
Display aspect ratio : 1.85:1
Frame rate mode : Constant
Frame rate : 23.976 (24000/1001) FPS
Color space : YUV
Chroma subsampling : 4:2:0
Bit depth : 8 bits
Scan type : Progressive
Bits/(Pixel*Frame) : 0.149
Stream size : 4.66 GiB (92%)
Title : You.Should.Have.Left.2020.1080p.AMZN.WEB-DL.EAC3.x264.Subthai.One2loadup.com
Default : Yes
Forced : No
Color range : Limited
Color primaries : BT.709
Transfer characteristics : BT.709
Matrix coefficients : BT.709

Audio
ID : 2
Format : E-AC-3
Format/Info : Enhanced AC-3
Commercial name : Dolby Digital Plus
Codec ID : A_EAC3
Duration : 1 h 33 min
Bit rate mode : Constant
Bit rate : 640 kb/s
Channel(s) : 6 channels
Channel layout : L R C LFE Ls Rs
Sampling rate : 48.0 kHz
Frame rate : 31.250 FPS (1536 SPF)
Compression mode : Lossy
Stream size : 428 MiB (8%)
Language : English
Service kind : Complete Main
Default : Yes
Forced : No

Text #1
ID : 3
Format : UTF-8
Codec ID : S_TEXT/UTF8
Codec ID/Info : UTF-8 Plain Text
Duration : 1 h 33 min
Bit rate : 50 b/s
Count of elements : 1486
Stream size : 34.3 KiB (0%)
Language : English
Default : No
Forced : No

Text #2
ID : 4
Format : PGS
Muxing mode : zlib
Codec ID : S_HDMV/PGS
Codec ID/Info : Picture based subtitle format used on BDs/HD-DVDs
Duration : 1 h 33 min
Bit rate : 22.3 kb/s
Count of elements : 2972
Stream size : 14.9 MiB (0%)
Language : English
Default : No
Forced : No

Text #3
ID : 5
Format : UTF-8
Codec ID : S_TEXT/UTF8
Codec ID/Info : UTF-8 Plain Text
Duration : 1 h 31 min
Bit rate : 95 b/s
Count of elements : 1004
Stream size : 64.0 KiB (0%)
Language : Thai
Default : No
Forced : No

Text #4
ID : 6
Format : PGS
Muxing mode : zlib
Codec ID : S_HDMV/PGS
Codec ID/Info : Picture based subtitle format used on BDs/HD-DVDs
Duration : 1 h 31 min
Bit rate : 18.2 kb/s
Count of elements : 2008
Stream size : 11.9 MiB (0%)
Language : Thai
Default : Yes
Forced : No

DOWNLOAD


PART01 |||| PART02 |||| PART03 |||| PART04 |||| PART05 |||| PART06

PART01 |||| PART02 |||| PART03 |||| PART04 |||| PART05 |||| PART06

PART01 |||| PART02 |||| PART03 |||| PART04 |||| PART05 |||| PART06

PART01 |||| PART02 |||| PART03 |||| PART04 |||| PART05 |||| PART06

PART01 |||| PART02 |||| PART03 |||| PART04 |||| PART05 |||| PART06



แจ้งหนังเสีย หรือโหลดไม่ได้ ทั้งลิ้งฟรีและ vip สามารถกดที่รูปด้านบนนี้ได้เลย

: Disable Comments
%d bloggers like this: