[ฝรั่ง] Violent Night (2022) คืนเดือด [1080p] [พากย์อังกฤษ 5.1] [Soundtrack บรรยายไทย + อังกฤษ] [เสียงอังกฤษ + ซับไทย] [PANDAFILE]

0

โหลดหนัง Violent Night (2022) คืนเดือด

Violent Night | December 2, 2022 (United States) Summary: When a group of mercenaries attack the estate of a wealthy family, Santa Claus must step in to save the day (and Christmas).
Countries: United States, CanadaLanguages: English

เรื่องย่อ Violent Night (2022) คืนเดือด

เรื่องราวของซานต้า (เดวิด ฮาร์เบอร์) ที่เดินสายเอาของขวัญไปมอบให้แก่เด็กนิสัยดีในคืนวันก่อนคริสต์มาส แล้วขณะที่หย่อนของขวัญลงในถุงเท้าของบ้านหลังหนึ่งนั้น ก็เกิดต้องเข้าไปพัวพันกับเหตุการณ์ที่คนร้ายจับคนทั้งบ้านเป็นตัวประกัน ซานต้าจึงต้องสวมบทบู๊ที่มาพร้อมกับของเล่นพิเศษของซานต้า เพื่อช่วยเด็กน้อยในบ้านหลังนั้นให้พ้นจากอันตราย

Complete name : Violent.Night.2022.1080p.WEB-DL.EAC3.x264.Subthai.One2loadup.com.mkv
Format : Matroska
Format version : Version 4
File size : 6.80 GiB
Duration : 1 h 51 min
Overall bit rate : 8 719 kb/s
Movie name : Violent.Night.2022.1080p.WEB-DL.EAC3.x264.Subthai.One2loadup.com
Encoded date : UTC 2022-12-22 10:27:14
Writing application : mkvmerge v72.0.0 (‘Minuano (Six-eight)’) 64-bit
Writing library : libebml v1.4.4 + libmatroska v1.7.1

Video
ID : 1
Format : AVC
Format/Info : Advanced Video Codec
Format profile : [email protected]
Format settings : CABAC / 4 Ref Frames
Format settings, CABAC : Yes
Format settings, Reference : 4 frames
Codec ID : V_MPEG4/ISO/AVC
Duration : 1 h 51 min
Bit rate : 8 000 kb/s
Width : 1 920 pixels
Height : 1 080 pixels
Display aspect ratio : 16:9
Frame rate mode : Constant
Frame rate : 23.976 (24000/1001) FPS
Color space : YUV
Chroma subsampling : 4:2:0
Bit depth : 8 bits
Scan type : Progressive
Bits/(Pixel*Frame) : 0.161
Stream size : 6.18 GiB (91%)
Title : Violent.Night.2022.1080p.WEB-DL.EAC3.x264.Subthai.One2loadup.com
Writing library : x264 core 164 r3094 bfc87b7
Encoding settings : cabac=1 / ref=4 / deblock=1:-1:-1 / analyse=0x3:0x133 / me=umh / subme=9 / psy=1 / psy_rd=1.00:0.15 / mixed_ref=1 / me_range=16 / chroma_me=1 / trellis=2 / 8x8dct=1 / cqm=0 / deadzone=21,11 / fast_pskip=1 / chroma_qp_offset=-3 / threads=12 / lookahead_threads=1 / sliced_threads=0 / nr=0 / decimate=1 / interlaced=0 / bluray_compat=0 / stitchable=1 / constrained_intra=0 / bframes=3 / b_pyramid=2 / b_adapt=2 / b_bias=0 / direct=3 / weightb=1 / open_gop=0 / weightp=2 / keyint=48 / keyint_min=4 / scenecut=0 / intra_refresh=0 / rc_lookahead=48 / rc=abr / mbtree=1 / bitrate=8000 / ratetol=1.0 / qcomp=0.60 / qpmin=0 / qpmax=69 / qpstep=4 / vbv_maxrate=8800 / vbv_bufsize=16000 / nal_hrd=none / filler=0 / ip_ratio=1.40 / aq=1:1.00
Language : English
Default : No
Forced : No
Color range : Limited
Color primaries : BT.709
Transfer characteristics : BT.709
Matrix coefficients : BT.709

Audio
ID : 2
Format : E-AC-3 JOC
Format/Info : Enhanced AC-3 with Joint Object Coding
Commercial name : Dolby Digital Plus with Dolby Atmos
Codec ID : A_EAC3
Duration : 1 h 51 min
Bit rate mode : Constant
Bit rate : 768 kb/s
Channel(s) : 6 channels
Channel layout : L R C LFE Ls Rs
Sampling rate : 48.0 kHz
Frame rate : 31.250 FPS (1536 SPF)
Compression mode : Lossy
Delay relative to video : 83 ms
Stream size : 613 MiB (9%)
Title : English DDP 5.1 Atmos
Language : English
Service kind : Complete Main
Default : Yes
Forced : No
Complexity index : 16
Number of dynamic objects : 15
Bed channel count : 1 channel
Bed channel configuration : LFE

Text #1
ID : 3
Format : PGS
Muxing mode : zlib
Codec ID : S_HDMV/PGS
Codec ID/Info : Picture based subtitle format used on BDs/HD-DVDs
Duration : 1 h 46 min
Bit rate : 30.0 kb/s
Count of elements : 2724
Stream size : 22.8 MiB (0%)
Title : Anant Po.
Language : Thai
Default : Yes
Forced : No

Text #2
ID : 4
Format : VobSub
Muxing mode : zlib
Codec ID : S_VOBSUB
Codec ID/Info : Picture based subtitle format used on DVDs
Duration : 1 h 46 min
Bit rate : 9 512 b/s
Count of elements : 1362
Stream size : 7.24 MiB (0%)
Title : Anant Po.
Language : Thai
Default : Yes
Forced : No

Text #3
ID : 5
Format : UTF-8
Codec ID : S_TEXT/UTF8
Codec ID/Info : UTF-8 Plain Text
Duration : 1 h 46 min
Bit rate : 118 b/s
Count of elements : 1362
Stream size : 92.3 KiB (0%)
Title : Anant Po.
Language : Thai
Default : Yes
Forced : No

Text #4
ID : 6
Format : UTF-8
Codec ID : S_TEXT/UTF8
Codec ID/Info : UTF-8 Plain Text
Duration : 1 h 46 min
Bit rate : 51 b/s
Count of elements : 1510
Stream size : 40.3 KiB (0%)
Language : English
Default : No
Forced : No

Text #5
ID : 7
Format : UTF-8
Codec ID : S_TEXT/UTF8
Codec ID/Info : UTF-8 Plain Text
Duration : 1 h 51 min
Bit rate : 68 b/s
Count of elements : 2132
Stream size : 56.3 KiB (0%)
Title : SDH
Language : English
Default : No
Forced : No

Menu
00:00:00.000 : en:Chapter 1
00:04:52.000 : en:Chapter 2
00:07:55.000 : en:Chapter 3
00:13:14.000 : en:Chapter 4
00:17:56.000 : en:Chapter 5
00:21:24.000 : en:Chapter 6
00:29:56.000 : en:Chapter 7
00:33:29.000 : en:Chapter 8
00:38:42.000 : en:Chapter 9
00:44:14.000 : en:Chapter 10
00:52:58.000 : en:Chapter 11
00:58:52.000 : en:Chapter 12
01:09:29.000 : en:Chapter 13
01:15:18.000 : en:Chapter 14
01:20:01.000 : en:Chapter 15
01:24:39.000 : en:Chapter 16
01:28:12.000 : en:Chapter 17
01:32:52.000 : en:Chapter 18
01:37:49.000 : en:Chapter 19
01:45:32.000 : en:Chapter 20

DOWNLOAD


PART01 |||| PART02 |||| PART03 |||| PART04 |||| PART05 |||| PART06 |||| PART07

PART01 |||| PART02 |||| PART03 |||| PART04 |||| PART05 |||| PART06 |||| PART07

PART01 |||| PART02 |||| PART03 |||| PART04 |||| PART05 |||| PART06 |||| PART07

PART01 |||| PART02 |||| PART03 |||| PART04 |||| PART05 |||| PART06 |||| PART07

PART01 |||| PART02 |||| PART03 |||| PART04 |||| PART05 |||| PART06 |||| PART07


Leave A Reply

อีเมล์ของคุณจะไม่แสดงให้เห็น Your email address will not be published.

%d bloggers like this: