[ฝรั่ง] Ticket to Paradise (2022) ตั๋วรักสู่พาราไดซ์ [1080p] [พากย์อังกฤษ 5.1] [Soundtrack บรรยายไทย + อังกฤษ] [เสียงอังกฤษ + ซับไทย] [USERLOAD]

0

โหลดหนัง Ticket to Paradise (2022) ตั๋วรักสู่พาราไดซ์

Ticket to Paradise | October 21, 2022 (United States) Summary: A divorced couple teams up and travels to Bali to stop their daughter from making the same mistake they think they made 25 years ago.
Countries: United States, United KingdomLanguages: English

เรื่องย่อ Ticket to Paradise (2022) ตั๋วรักสู่พาราไดซ์

เรื่องราวของอดีตคู่สามีภรรยา เดวิด และ จอร์เจีย ที่ต้องมาร่วมมือกันหยุดยั้งลูกสาวของพวกเขาที่กำลังตกอยู่ในห้วงของความคลั่งรัก ไม่ให้ทำผิดพลาดแบบที่พวกเขาเคยทำ

Complete name : Ticket.to.Paradise.2022.1080p.WEB-DL.EAC3.x264.Subthai.One2loadup.com.mkv
Format : Matroska
Format version : Version 4
File size : 4.34 GiB
Duration : 1 h 43 min
Overall bit rate : 5 981 kb/s
Movie name : Ticket.to.Paradise.2022.1080p.WEB-DL.EAC3.x264.Subthai.One2loadup.com
Encoded date : UTC 2022-10-28 12:40:36
Writing application : mkvmerge v55.0.0 (‘Waiting For Space’) 64-bit
Writing library : libebml v1.4.2 + libmatroska v1.6.4

Video
ID : 1
Format : AVC
Format/Info : Advanced Video Codec
Format profile : [email protected]
Format settings : CABAC / 3 Ref Frames
Format settings, CABAC : Yes
Format settings, Reference : 3 frames
Codec ID : V_MPEG4/ISO/AVC
Duration : 1 h 43 min
Bit rate : 5 182 kb/s
Width : 1 920 pixels
Height : 802 pixels
Display aspect ratio : 2.40:1
Frame rate mode : Constant
Frame rate : 23.976 (24000/1001) FPS
Color space : YUV
Chroma subsampling : 4:2:0
Bit depth : 8 bits
Scan type : Progressive
Bits/(Pixel*Frame) : 0.140
Stream size : 3.76 GiB (87%)
Title : Ticket.to.Paradise.2022.1080p.WEB-DL.EAC3.x264.Subthai.One2loadup.com
Language : English
Default : Yes
Forced : No
Color range : Limited
Color primaries : BT.709
Transfer characteristics : BT.709
Matrix coefficients : BT.709

Audio
ID : 2
Format : E-AC-3 JOC
Format/Info : Enhanced AC-3 with Joint Object Coding
Commercial name : Dolby Digital Plus with Dolby Atmos
Codec ID : A_EAC3
Duration : 1 h 43 min
Bit rate mode : Constant
Bit rate : 768 kb/s
Channel(s) : 6 channels
Channel layout : L R C LFE Ls Rs
Sampling rate : 48.0 kHz
Frame rate : 31.250 FPS (1536 SPF)
Compression mode : Lossy
Stream size : 571 MiB (13%)
Title : E-AC3 Atmos English
Language : English
Service kind : Complete Main
Default : Yes
Forced : No
Complexity index : 16
Number of dynamic objects : 15
Bed channel count : 1 channel
Bed channel configuration : LFE

Text #1
ID : 3
Format : VobSub
Muxing mode : zlib
Codec ID : S_VOBSUB
Codec ID/Info : Picture based subtitle format used on DVDs
Duration : 1 h 38 min
Bit rate : 15.2 kb/s
Count of elements : 1587
Stream size : 10.8 MiB (0%)
Title : Sub Thai 1080p
Language : Thai
Default : No
Forced : No

Text #2
ID : 4
Format : UTF-8
Codec ID : S_TEXT/UTF8
Codec ID/Info : UTF-8 Plain Text
Duration : 1 h 38 min
Bit rate : 154 b/s
Count of elements : 1587
Stream size : 112 KiB (0%)
Title : Sub Thai SRT
Language : Thai
Default : No
Forced : No

Text #3
ID : 5
Format : PGS
Muxing mode : zlib
Codec ID : S_HDMV/PGS
Codec ID/Info : Picture based subtitle format used on BDs/HD-DVDs
Duration : 1 h 38 min
Bit rate : 46.5 kb/s
Count of elements : 3174
Stream size : 32.8 MiB (1%)
Title : Sub Thai PGS
Language : Thai
Default : Yes
Forced : No

Text #4
ID : 6
Format : UTF-8
Codec ID : S_TEXT/UTF8
Codec ID/Info : UTF-8 Plain Text
Duration : 1 h 42 min
Bit rate : 73 b/s
Count of elements : 1953
Stream size : 55.1 KiB (0%)
Title : Sub English SRT
Language : English
Default : No
Forced : No

Menu
00:00:00.000 : en:Chapter 01
00:05:15.231 : en:Chapter 02
00:13:54.834 : en:Chapter 03
00:18:34.197 : en:Chapter 04
00:23:44.674 : en:Chapter 05
00:31:39.566 : en:Chapter 06
00:36:49.501 : en:Chapter 07
00:43:05.835 : en:Chapter 08
00:50:38.329 : en:Chapter 09
00:58:03.149 : en:Chapter 10
01:06:25.485 : en:Chapter 11
01:12:24.302 : en:Chapter 12
01:17:47.375 : en:Chapter 13
01:27:38.258 : en:Chapter 14
01:30:54.454 : en:Chapter 15
01:35:34.818 : en:Chapter 16

DOWNLOAD


PART01 |||| PART02 |||| PART03 |||| PART04 |||| PART05

PART01 |||| PART02 |||| PART03 |||| PART04 |||| PART05

PART01 |||| PART02 |||| PART03 |||| PART04 |||| PART05

PART01 |||| PART02 |||| PART03 |||| PART04 |||| PART05

PART01 |||| PART02 |||| PART03 |||| PART04 |||| PART05


Leave A Reply

อีเมล์ของคุณจะไม่แสดงให้เห็น Your email address will not be published.

%d bloggers like this: