[ฝรั่ง] Them That Follow (2019) นางงูพิษ [1080p] [พากย์ไทย 5.1 + เสียงอังกฤษ 5.1] [บรรยายอังกฤษ] [เสียงไทย + ซับอังกฤษ] [PANDAFILE]

2

Them That Follow (2019)

โหลดหนัง Them That Follow (2019) นางงูพิษ

Them That Follow | August 2, 2019 (United States) Summary: Set deep in the wilds of Appalachia, where believers handle death-dealing snakes to prove themselves before God, a pastor's daughter holds a secret that threatens to tear apart her community... Read all
Countries: United StatesLanguages: English

เรื่องย่อ Them That Follow (2019) นางงูพิษ

ตั้งอยู่ลึกเข้าไปในป่าของ Appalachia ที่ผู้เชื่อจัดการงูที่จัดการความตายเพื่อพิสูจน์ตัวเองต่อหน้าพระเจ้าลูกสาวของศิษยาภิบาลมีความลับที่คุกคามชุมชนของเธอ

Complete name : Them.That.Follow.2019.1080p.WEB-DL.AC3.x264.One2loadup.com.mkv
Format : Matroska
Format version : Version 4
File size : 3.63 GiB
Duration : 1 h 37 min
Overall bit rate : 5 298 kb/s
Movie name : Them.That.Follow.2019.1080p.WEB-DL.AC3.x264.One2loadup.com
Encoded date : UTC 2019-12-16 06:50:22
Writing application : mkvmerge v41.0.0 (‘Smarra’) 64-bit
Writing library : libebml v1.3.9 + libmatroska v1.5.2
Cover : Yes
Attachments : cover.jpg

Video
ID : 1
Format : AVC
Format/Info : Advanced Video Codec
Format profile : [email protected]
Format settings : CABAC / 1 Ref Frames
Format settings, CABAC : Yes
Format settings, ReFrames : 1 frame
Format settings, GOP : M=1, N=25
Codec ID : V_MPEG4/ISO/AVC
Duration : 1 h 37 min
Bit rate mode : Constant
Bit rate : 4 000 kb/s
Width : 1 920 pixels
Height : 816 pixels
Display aspect ratio : 2.35:1
Frame rate mode : Constant
Frame rate : 29.970 (30000/1001) FPS
Color space : YUV
Chroma subsampling : 4:2:0
Bit depth : 8 bits
Scan type : Progressive
Bits/(Pixel*Frame) : 0.085
Stream size : 2.73 GiB (75%)
Title : Them.That.Follow.2019.1080p.WEB-DL.AC3.x264.One2loadup.com
Language : English
Default : Yes
Forced : No

Audio #1
ID : 2
Format : AC-3
Format/Info : Audio Coding 3
Commercial name : Dolby Digital
Codec ID : A_AC3
Duration : 1 h 37 min
Bit rate mode : Constant
Bit rate : 640 kb/s
Channel(s) : 6 channels
Channel layout : L R C LFE Ls Rs
Sampling rate : 44.1 kHz
Frame rate : 28.711 FPS (1536 SPF)
Bit depth : 16 bits
Compression mode : Lossy
Stream size : 449 MiB (12%)
Title : 5.1 AC3 TH 640k
Language : Thai
Service kind : Complete Main
Default : Yes
Forced : No

Audio #2
ID : 3
Format : AC-3
Format/Info : Audio Coding 3
Commercial name : Dolby Digital
Codec ID : A_AC3
Duration : 1 h 37 min
Bit rate mode : Constant
Bit rate : 640 kb/s
Channel(s) : 6 channels
Channel layout : L R C LFE Ls Rs
Sampling rate : 44.1 kHz
Frame rate : 28.711 FPS (1536 SPF)
Bit depth : 16 bits
Compression mode : Lossy
Stream size : 449 MiB (12%)
Title : 5.1 AC3 En 640
Language : English
Service kind : Complete Main
Default : No
Forced : No

Text #1
ID : 4
Format : PGS
Muxing mode : zlib
Codec ID : S_HDMV/PGS
Codec ID/Info : Picture based subtitle format used on BDs/HD-DVDs
Duration : 1 h 31 min
Bit rate : 13.9 kb/s
Count of elements : 1486
Stream size : 9.13 MiB (0%)
Title : En.PGS.green
Language : English
Default : Yes
Forced : No

Text #2
ID : 5
Format : PGS
Muxing mode : zlib
Codec ID : S_HDMV/PGS
Codec ID/Info : Picture based subtitle format used on BDs/HD-DVDs
Duration : 1 h 32 min
Bit rate : 17.4 kb/s
Count of elements : 1922
Stream size : 11.6 MiB (0%)
Title : EN.SHD. PGS.white
Language : English
Default : No
Forced : No

DOWNLOAD


PART01 |||| PART02 |||| PART03 |||| PART04

PART01 |||| PART02 |||| PART03 |||| PART04

PART01 |||| PART02 |||| PART03 |||| PART04

PART01 |||| PART02 |||| PART03 |||| PART04


2 Comments
  1. Patipan Khamcha
    Patipan Khamcha says

    zolo ไม่มี

    1. Admin
      Admin says

      แก้ไขเรียบร้อยฮ๊ะ

Leave A Reply

อีเมล์ของคุณจะไม่แสดงให้เห็น Your email address will not be published.

%d bloggers like this: