[ฝรั่ง] The Night House (2021) เดอะ ไนท์ เฮาส์ [1080p] [พากย์อังกฤษ 5.1] [Soundtrack บรรยายไทย + อังกฤษ] [เสียงอังกฤษ + ซับไทย] [USERLOAD]

0

โหลดหนัง The Night House (2021) เดอะ ไนท์ เฮาส์

The Night House 107min | Horror, Mystery, Thriller | August 20, 2021 (United States) Summary: A widow begins to uncover her recently deceased husband's disturbing secrets.
Countries: United Kingdom, United StatesLanguages: English

เรื่องย่อ The Night House (2021) เดอะ ไนท์ เฮาส์

หญิงม่ายคนหนึ่งเริ่มเปิดเผยความลับที่น่าเป็นห่วงของสามีที่เพิ่งเสียชีวิต

Complete name : The.Night.House.2021.1080p.WEB-DL.EAC3.x264.Subthai.One2loadup.com.mkv
Format : Matroska
Format version : Version 4
File size : 4.25 GiB
Duration : 1 h 46 min
Overall bit rate : 5 691 kb/s
Movie name : The.Night.House.2021.1080p.WEB-DL.EAC3.x264.Subthai.One2loadup.com
Encoded date : UTC 2021-10-06 14:22:39
Writing application : mkvmerge v61.0.0 (‘So’) 64-bit
Writing library : libebml v1.4.2 + libmatroska v1.6.4

Video
ID : 1
Format : AVC
Format/Info : Advanced Video Codec
Format profile : [email protected]
Format settings : CABAC / 3 Ref Frames
Format settings, CABAC : Yes
Format settings, Reference : 3 frames
Codec ID : V_MPEG4/ISO/AVC
Duration : 1 h 46 min
Bit rate : 5 037 kb/s
Width : 1 920 pixels
Height : 800 pixels
Display aspect ratio : 2.40:1
Frame rate mode : Constant
Frame rate : 23.976 (24000/1001) FPS
Color space : YUV
Chroma subsampling : 4:2:0
Bit depth : 8 bits
Scan type : Progressive
Bits/(Pixel*Frame) : 0.137
Stream size : 3.76 GiB (89%)
Title : The.Night.House.2021.1080p.WEB-DL.EAC3.x264.Subthai.One2loadup.com
Language : English
Default : Yes
Forced : No
Color range : Limited
Color primaries : BT.709
Transfer characteristics : BT.709
Matrix coefficients : BT.709

Audio
ID : 2
Format : E-AC-3
Format/Info : Enhanced AC-3
Commercial name : Dolby Digital Plus
Codec ID : A_EAC3
Duration : 1 h 46 min
Bit rate mode : Constant
Bit rate : 640 kb/s
Channel(s) : 6 channels
Channel layout : L R C LFE Ls Rs
Sampling rate : 48.0 kHz
Frame rate : 31.250 FPS (1536 SPF)
Compression mode : Lossy
Stream size : 490 MiB (11%)
Title : E-AC3 English
Language : English
Service kind : Complete Main
Default : Yes
Forced : No

Text #1
ID : 3
Format : VobSub
Muxing mode : zlib
Codec ID : S_VOBSUB
Codec ID/Info : Picture based subtitle format used on DVDs
Duration : 1 h 39 min
Bit rate : 6 563 b/s
Count of elements : 817
Stream size : 4.66 MiB (0%)
Title : Sub Thai 1080p
Language : Thai
Default : No
Forced : No

Text #2
ID : 4
Format : UTF-8
Codec ID : S_TEXT/UTF8
Codec ID/Info : UTF-8 Plain Text
Duration : 1 h 39 min
Bit rate : 68 b/s
Count of elements : 817
Stream size : 50.0 KiB (0%)
Title : Sub Thai SRT
Language : Thai
Default : No
Forced : No

Text #3
ID : 5
Format : PGS
Muxing mode : zlib
Codec ID : S_HDMV/PGS
Codec ID/Info : Picture based subtitle format used on BDs/HD-DVDs
Duration : 1 h 39 min
Bit rate : 18.8 kb/s
Count of elements : 1634
Stream size : 13.3 MiB (0%)
Title : Sub Thai PGS
Language : Thai
Default : Yes
Forced : No

Text #4
ID : 6
Format : UTF-8
Codec ID : S_TEXT/UTF8
Codec ID/Info : UTF-8 Plain Text
Duration : 1 h 39 min
Bit rate : 30 b/s
Count of elements : 833
Stream size : 21.9 KiB (0%)
Title : Sub English SRT
Language : English
Default : No
Forced : No

DOWNLOAD


PART01 |||| PART02 |||| PART03 |||| PART04 |||| PART05

PART01 |||| PART02 |||| PART03 |||| PART04 |||| PART05

PART01 |||| PART02 |||| PART03 |||| PART04 |||| PART05

PART01 |||| PART02 |||| PART03 |||| PART04 |||| PART05

PART01 |||| PART02 |||| PART03 |||| PART04 |||| PART05


Leave A Reply

อีเมล์ของคุณจะไม่แสดงให้เห็น Your email address will not be published.

%d bloggers like this: