[ฝรั่ง] The Marksman (2021) คนระห่ำ พันธ์ุระอุ [1080p] [พากย์ไทยโรง 2.0 + เสียงอังกฤษ 5.1] [บรรยายไทยแปล + อังกฤษ] [เสียงไทยโรง + ซับไทย] [PANDAFILE]

0

โหลดหนัง The Marksman (2021) คนระห่ำ พันธ์ุระอุ

The Marksman (2021) 108min | Action, Thriller | 15 January 2021 (USA) Summary: A rancher on the Arizona border becomes the unlikely defender of a young Mexican boy desperately fleeing the cartel assassins who've pursued him into the U.S.
Countries: USALanguages: English

เรื่องย่อ The Marksman (2021) คนระห่ำ พันธ์ุระอุ

อดีตทหารเรือ จิม แฮนสัน (เลียม นีสัน) หนีความวุ่นวายมาใช้ชีวิตอย่างสงบสุขในฟาร์มนอกเมือง วันหนึ่งเขากลับเจอสองแม่ลูก ชื่อ โรซ่า (เทเรซ่า รูอิซ) และ มิเกล (เจค็อบ เปเรซ) หลบหนีเอาตัวรอดจากกลุ่มคนที่หวังเอาชีวิตพวกเขาเพราะไปพัวพันกับกลุ่มนักฆ่าค้ายา มัวริซิโอ (ฮวน พาโบล ราบา) ด้วยความที่มีเลือดนักสู้อย่างเข้มข้นในตัวทำให้ แฮนสัน ตัดสินใจช่วยเหลือสองแม่ลูกทันทีโดยที่ไม่รู้เลยว่าการตัดสินใจครั้งนี้จะพาความอันตรายมาสู่ชีวิตของเขาอย่างไม่คาดคิด ทั้งยังเดือดร้อนไปถึง ซาร่าห์ (แคทธาลีน วินนิค) ลูกสาวผู้เป็นตำรวจของเขาอีกด้วย!

Complete name : The.Marksman.2021.1080p.WEB-DL.AC3.x264.THR.One2loadup.com.mkv
Format : Matroska
Format version : Version 4
File size : 3.80 GiB
Duration : 1 h 47 min
Overall bit rate : 5 055 kb/s
Movie name : The.Marksman.2021.1080p.WEB-DL.AC3.x264.THR.One2loadup.com
Encoded date : UTC 2021-04-17 02:52:33
Writing application : mkvmerge v56.1.0 (‘My Friend’) 64-bit
Writing library : libebml v1.4.2 + libmatroska v1.6.4

Video
ID : 1
Format : AVC
Format/Info : Advanced Video Codec
Format profile : [email protected]
Format settings : CABAC / 5 Ref Frames
Format settings, CABAC : Yes
Format settings, Reference : 5 frames
Codec ID : V_MPEG4/ISO/AVC
Duration : 1 h 47 min
Bit rate : 4 579 kb/s
Width : 1 920 pixels
Height : 804 pixels
Display aspect ratio : 2.40:1
Frame rate mode : Constant
Frame rate : 24.000 FPS
Color space : YUV
Chroma subsampling : 4:2:0
Bit depth : 8 bits
Scan type : Progressive
Bits/(Pixel*Frame) : 0.124
Stream size : 3.44 GiB (91%)
Title : The.Marksman.2021.1080p.WEB-DL.AC3.x264.THR.One2loadup.com
Language : English
Default : Yes
Forced : No
Color range : Limited
Color primaries : BT.709
Transfer characteristics : BT.709
Matrix coefficients : BT.709

Audio #1
ID : 2
Format : AC-3
Format/Info : Audio Coding 3
Commercial name : Dolby Digital
Codec ID : A_AC3
Duration : 1 h 47 min
Bit rate mode : Constant
Bit rate : 384 kb/s
Channel(s) : 6 channels
Channel layout : L R C LFE Ls Rs
Sampling rate : 48.0 kHz
Frame rate : 31.250 FPS (1536 SPF)
Compression mode : Lossy
Stream size : 295 MiB (8%)
Language : English
Service kind : Complete Main
Default : No
Forced : No

Audio #2
ID : 3
Format : AAC LC
Format/Info : Advanced Audio Codec Low Complexity
Codec ID : A_AAC-2
Duration : 1 h 40 min
Bit rate : 96.0 kb/s
Channel(s) : 2 channels
Channel layout : L R
Sampling rate : 48.0 kHz
Frame rate : 46.875 FPS (1024 SPF)
Compression mode : Lossy
Delay relative to video : 16 s 500 ms
Stream size : 69.0 MiB (2%)
Title : THR
Language : Thai
Default : Yes
Forced : No

Text #1
ID : 4
Format : UTF-8
Codec ID : S_TEXT/UTF8
Codec ID/Info : UTF-8 Plain Text
Duration : 1 h 40 min
Bit rate : 86 b/s
Count of elements : 1015
Stream size : 63.1 KiB (0%)
Title : Thai
Language : Thai
Default : Yes
Forced : Yes

Text #2
ID : 5
Format : UTF-8
Codec ID : S_TEXT/UTF8
Codec ID/Info : UTF-8 Plain Text
Duration : 1 h 37 min
Bit rate : 2 b/s
Count of elements : 109
Stream size : 1.94 KiB (0%)
Title : FORCED
Language : English
Default : No
Forced : No

DOWNLOAD


PART01 |||| PART02 |||| PART03 |||| PART04

PART01 |||| PART02 |||| PART03 |||| PART04

PART01 |||| PART02 |||| PART03 |||| PART04

PART01 |||| PART02 |||| PART03 |||| PART04

PART01 |||| PART02 |||| PART03 |||| PART04


Leave A Reply

Your email address will not be published.

%d bloggers like this: