[ฝรั่ง] The Lost Husband (2020) [พากย์อังกฤษ 5.1] [Soundtrack บรรยายไทย + อังกฤษ] [เสียงอังกฤษ + ซับไทย] [PANDAFILE]

0

โหลดหนัง The Lost Husband (2020)

The Lost Husband (2020) 1h 49min | Drama, Romance | 10 April 2020 (USA) Summary: Trying to put her life back together after the death of her husband, Libby and her children move to her estranged Aunt's goat farm in central Texas.
Countries: USALanguages: English

เรื่องย่อ The Lost Husband (2020)

ลิบบี้และลูกๆ ของเธอพยายามทำให้ชีวิตของพวกเขากลับคืนมาอีกครั้งหลังจากการตายของสามีของเธอ พวกเธอย้ายไปอยู่ที่ฟาร์มแพะของป้าที่ห่างไกลในเท็กซัส

Complete name : The.Lost.Husband.2020.1080p.WEB-DL.AC3.x264.Subthai.One2loadup.com.mkv
Format : Matroska
Format version : Version 4
File size : 4.29 GiB
Duration : 1 h 50 min
Overall bit rate : 5 573 kb/s
Movie name : The.Lost.Husband.2020.1080p.WEB-DL.AC3.x264.Subthai.One2loadup.com
Encoded date : UTC 2020-11-06 13:59:15
Writing application : mkvmerge v51.0.0 (‘I Wish’) 64-bit
Writing library : libebml v1.4.0 + libmatroska v1.6.2
Cover : Yes
Attachments : cover

Video
ID : 1
Format : AVC
Format/Info : Advanced Video Codec
Format profile : [email protected]
Format settings : CABAC / 4 Ref Frames
Format settings, CABAC : Yes
Format settings, ReFrames : 4 frames
Codec ID : V_MPEG4/ISO/AVC
Duration : 1 h 50 min
Bit rate : 5 161 kb/s
Width : 1 920 pixels
Height : 1 036 pixels
Display aspect ratio : 1.85:1
Frame rate mode : Constant
Frame rate : 23.976 FPS
Color space : YUV
Chroma subsampling : 4:2:0
Bit depth : 8 bits
Scan type : Progressive
Bits/(Pixel*Frame) : 0.108
Stream size : 3.97 GiB (93%)
Title : The.Lost.Husband.2020.1080p.WEB-DL.AC3.x264.Subthai.One2loadup.com
Language : English
Default : Yes
Forced : No
Color range : Limited
Color primaries : BT.709
Transfer characteristics : BT.709
Matrix coefficients : BT.709

Audio
ID : 2
Format : AC-3
Format/Info : Audio Coding 3
Commercial name : Dolby Digital
Codec ID : A_AC3
Duration : 1 h 50 min
Bit rate mode : Constant
Bit rate : 384 kb/s
Channel(s) : 6 channels
Channel layout : L R C LFE Ls Rs
Sampling rate : 48.0 kHz
Frame rate : 31.250 FPS (1536 SPF)
Bit depth : 16 bits
Compression mode : Lossy
Delay relative to video : -42 ms
Stream size : 303 MiB (7%)
Language : English
Service kind : Complete Main
Default : No
Forced : No

Text #1
ID : 3
Format : UTF-8
Codec ID : S_TEXT/UTF8
Codec ID/Info : UTF-8 Plain Text
Duration : 1 h 42 min
Bit rate : 61 b/s
Count of elements : 1735
Stream size : 46.5 KiB (0%)
Language : English
Default : No
Forced : No

Text #2
ID : 4
Format : PGS
Muxing mode : zlib
Codec ID : S_HDMV/PGS
Codec ID/Info : Picture based subtitle format used on BDs/HD-DVDs
Duration : 1 h 42 min
Bit rate : 30.3 kb/s
Count of elements : 3470
Stream size : 22.2 MiB (1%)
Language : English
Default : No
Forced : No

Text #3
ID : 5
Format : UTF-8
Codec ID : S_TEXT/UTF8
Codec ID/Info : UTF-8 Plain Text
Duration : 1 h 42 min
Bit rate : 127 b/s
Count of elements : 1280
Stream size : 95.7 KiB (0%)
Language : Thai
Default : No
Forced : No

Text #4
ID : 6
Format : PGS
Muxing mode : zlib
Codec ID : S_HDMV/PGS
Codec ID/Info : Picture based subtitle format used on BDs/HD-DVDs
Duration : 1 h 42 min
Bit rate : 23.1 kb/s
Count of elements : 2560
Stream size : 17.0 MiB (0%)
Language : Thai
Default : Yes
Forced : No

Menu
00:00:00.000 : en:Chapter 01
00:10:06.000 : en:Chapter 02
00:20:26.000 : en:Chapter 03
00:30:59.000 : en:Chapter 04
00:40:43.000 : en:Chapter 05
00:50:57.000 : en:Chapter 06
00:58:13.000 : en:Chapter 07
01:07:37.000 : en:Chapter 08
01:19:00.000 : en:Chapter 09
01:30:14.000 : en:Chapter 10
01:37:30.000 : en:Chapter 11
01:45:55.000 : en:Chapter 12

DOWNLOAD


PART01 |||| PART02 |||| PART03 |||| PART04 |||| PART05

PART01 |||| PART02 |||| PART03 |||| PART04 |||| PART05

PART01 |||| PART02 |||| PART03 |||| PART04 |||| PART05

PART01 |||| PART02 |||| PART03 |||| PART04 |||| PART05

PART01 |||| PART02 |||| PART03 |||| PART04 |||| PART05



แจ้งหนังเสีย หรือโหลดไม่ได้ ทั้งลิ้งฟรีและ vip สามารถกดที่รูปด้านบนนี้ได้เลย

: Disable Comments
%d bloggers like this: