[ฝรั่ง] The Life Ahead (2020) ชีวิตข้างหน้า [1080p] [NETFLIX] [พากย์อิตาลี 5.1 + เสียงอังกฤษ 5.1] [Soundtrack บรรยายไทย + อังกฤษ] [เสียงอิตาลี + ซับไทย] [PANDAFILE]

0

โหลดหนัง The Life Ahead (2020) ชีวิตข้างหน้า

The Life Ahead (2020) 1h 34min | Drama | 13 November 2020 (USA) Summary: In seaside Italy, a Holocaust survivor with a daycare business takes in a 12-year-old street kid who recently robbed her.
Countries: ItalyLanguages: Italian

เรื่องย่อ The Life Ahead (2020) ชีวิตข้างหน้า

หญิงผู้รอดชีวิตจากการฆ่าล้างเผ่าพันธุ์ที่เปิดสถานเลี้ยงเด็กได้พบกับเด็กเร่ร่อนที่มาขโมยของและตัดสินใจอุปการะเขาจนเกิดเป็นมิตรภาพต่างขั้ว

Complete name : The.Life.Ahead.2020.1080p.NL.WEB-DL.EAC3.x264.Subthai.One2loadup.com.mkv
Format : Matroska
Format version : Version 4
File size : 3.95 GiB
Duration : 1 h 35 min
Overall bit rate : 5 957 kb/s
Movie name : The.Life.Ahead.2020.1080p.NL.WEB-DL.EAC3.x264.Subthai.One2loadup.com
Encoded date : UTC 2020-11-16 19:55:25
Writing application : mkvmerge v51.0.0 (‘I Wish’) 64-bit
Writing library : libebml v1.4.0 + libmatroska v1.6.2

Video
ID : 1
Format : AVC
Format/Info : Advanced Video Codec
Format profile : [email protected]
Format settings : CABAC / 3 Ref Frames
Format settings, CABAC : Yes
Format settings, ReFrames : 3 frames
Codec ID : V_MPEG4/ISO/AVC
Duration : 1 h 35 min
Bit rate : 4 637 kb/s
Width : 1 920 pixels
Height : 800 pixels
Display aspect ratio : 2.40:1
Frame rate mode : Constant
Frame rate : 24.000 FPS
Color space : YUV
Chroma subsampling : 4:2:0
Bit depth : 8 bits
Scan type : Progressive
Bits/(Pixel*Frame) : 0.126
Stream size : 3.08 GiB (78%)
Title : The.Life.Ahead.2020.1080p.NL.WEB-DL.EAC3.x264.Subthai.One2loadup.com
Language : Italian
Default : Yes
Forced : No

Audio #1
ID : 2
Format : E-AC-3
Format/Info : Enhanced AC-3
Commercial name : Dolby Digital Plus
Codec ID : A_EAC3
Duration : 1 h 35 min
Bit rate mode : Constant
Bit rate : 640 kb/s
Channel(s) : 6 channels
Channel layout : L R C LFE Ls Rs
Sampling rate : 48.0 kHz
Frame rate : 31.250 FPS (1536 SPF)
Compression mode : Lossy
Stream size : 435 MiB (11%)
Title : AC-3 Italian
Language : Italian
Service kind : Complete Main
Default : Yes
Forced : No

Audio #2
ID : 3
Format : E-AC-3
Format/Info : Enhanced AC-3
Commercial name : Dolby Digital Plus
Codec ID : A_EAC3
Duration : 1 h 35 min
Bit rate mode : Constant
Bit rate : 640 kb/s
Channel(s) : 6 channels
Channel layout : L R C LFE Ls Rs
Sampling rate : 48.0 kHz
Frame rate : 31.250 FPS (1536 SPF)
Compression mode : Lossy
Stream size : 435 MiB (11%)
Title : AC-3 English
Language : English
Service kind : Complete Main
Default : No
Forced : No

Text #1
ID : 4
Format : VobSub
Muxing mode : zlib
Codec ID : S_VOBSUB
Codec ID/Info : Picture based subtitle format used on DVDs
Duration : 1 h 33 min
Bit rate : 6 398 b/s
Count of elements : 827
Stream size : 4.30 MiB (0%)
Title : Sub Thai 1080p
Language : Thai
Default : No
Forced : No

Text #2
ID : 5
Format : UTF-8
Codec ID : S_TEXT/UTF8
Codec ID/Info : UTF-8 Plain Text
Duration : 1 h 33 min
Bit rate : 72 b/s
Count of elements : 827
Stream size : 49.7 KiB (0%)
Title : Sub Thai SRT
Language : Thai
Default : Yes
Forced : No

Text #3
ID : 6
Format : VobSub
Muxing mode : zlib
Codec ID : S_VOBSUB
Codec ID/Info : Picture based subtitle format used on DVDs
Duration : 1 h 33 min
Bit rate : 6 474 b/s
Count of elements : 820
Stream size : 4.35 MiB (0%)
Title : Sub English 1080p
Language : English
Default : No
Forced : No

Text #4
ID : 7
Format : UTF-8
Codec ID : S_TEXT/UTF8
Codec ID/Info : UTF-8 Plain Text
Duration : 1 h 33 min
Bit rate : 33 b/s
Count of elements : 820
Stream size : 23.0 KiB (0%)
Title : Sub English SRT
Language : English
Default : No
Forced : No

Text #5
ID : 8
Format : PGS
Muxing mode : zlib
Codec ID : S_HDMV/PGS
Codec ID/Info : Picture based subtitle format used on BDs/HD-DVDs
Duration : 1 h 33 min
Bit rate : 21.7 kb/s
Count of elements : 1640
Stream size : 14.6 MiB (0%)
Title : Sub English PGS
Language : English
Default : No
Forced : No

Text #6
ID : 9
Format : PGS
Muxing mode : zlib
Codec ID : S_HDMV/PGS
Codec ID/Info : Picture based subtitle format used on BDs/HD-DVDs
Duration : 1 h 33 min
Bit rate : 21.3 kb/s
Count of elements : 1654
Stream size : 14.3 MiB (0%)
Title : Sub Thai PGS
Language : Thai
Default : No
Forced : No

Text #7
ID : 10
Format : PGS
Muxing mode : zlib
Codec ID : S_HDMV/PGS
Codec ID/Info : Picture based subtitle format used on BDs/HD-DVDs
Duration : 1 h 33 min
Bit rate : 14.1 kb/s
Count of elements : 1654
Stream size : 9.49 MiB (0%)
Title : Sub Thai PGS NETFLIX
Language : Thai
Default : No
Forced : No

DOWNLOAD


PART01 |||| PART02 |||| PART03 |||| PART04 |||| PART05

PART01 |||| PART02 |||| PART03 |||| PART04 |||| PART05

PART01 |||| PART02 |||| PART03 |||| PART04 |||| PART05

PART01 |||| PART02 |||| PART03 |||| PART04 |||| PART05

PART01 |||| PART02 |||| PART03 |||| PART04 |||| PART05



แจ้งหนังเสีย หรือโหลดไม่ได้ ทั้งลิ้งฟรีและ vip สามารถกดที่รูปด้านบนนี้ได้เลย

: Disable Comments
%d bloggers like this: