[ฝรั่ง] The Guest (2014) เดอะ เกสท์ [1080p] [พากย์อังกฤษ DTS] [Soundtrack บรรยายไทย] [เสียงอังกฤษ + ซับไทย] [OPENLOAD]

0

The Guest (2014)

โหลดหนัง The Guest (2014) เดอะ เกสท์

The Guest (2014) 1h 40min | Action, Comedy, Crime | 5 September 2014 (UK) Summary: A soldier introduces himself to the Peterson family, claiming to be a friend of their son who died in action. After the young man is welcomed into their home, a series of accidental deaths seem to be connected to his presence.
Countries: USA, UKLanguages: English

เรื่องย่อ The Guest (2014) เดอะ เกสท์

ใน You’re Next หนังเขย่าขวัญฆาตกรรมของผู้กำกับอดัม วินการ์ด และผู้เขียนบทไซมอน บาร์เร็ตต์ ที่ได้รับคำวิจารณ์ค่อนข้างดีเมื่อปีที่แล้ว และถูกใจคอหนังแนวเชือดสยองมากมาย เป็นเรื่องราวของแขกที่ไม่ได้รับเชิญบุกเข้ามาฆ่าคนค รอบครัวหนึ่งขณะที่สังสรรค์กัน หนัง The Guest ก็เป็นเรื่องราวของฆาตกรที่เข้ามาฆ่าคนในครอบครัวหนึ ่งเช่นกันครับ เพียงแต่ต่างกันที่คราวนี้เป็นแขกรับเชิญ

หนังมีแดน สตีเวนส์ จาก Downton Abbey ที่ผันมารับบทร้ายในเรื่องนี้ เป็นชายหนุ่มลึกลับที่มายังบ้านของครอบครัวชนชั้นกลา งแห่งหนึ่งซึ่งเพิ่งเสียลูกชายคนโตของบ้านไปจากสงครา ม เขาเข้ามาแสดงความเสียใจและบอกว่าเป็นสหายร่วมศึกกับ ลูกชายของพวกเขา ครอบครัวเชิญเขาเข้ามาพักอาศัยด้วยแล้วก็เกิดเรื่องส ยองขวัญตามมา เพราะชายหนุ่มเริ่มเผยธาตุแท้ของความโรคจิตให้เห็น

Complete name : The.Guest.2014.1080p.BDRip.DTS.x264.Subthai.One2loadup.com.mkv
Format : Matroska
Format version : Version 4
File size : 3.24 GiB
Duration : 1 h 40 min
Overall bit rate : 4 621 kb/s
Movie name : The.Guest.2014.1080p.BDRip.DTS.x264.Subthai.One2loadup.com
Encoded date : UTC 2015-01-14 02:56:31
Writing application : mkvmerge v7.2.0 (‘On Every Street’) 64bit built on Sep 13 2014 15:52:10
Writing library : libebml v1.3.0 + libmatroska v1.4.1
Cover : Yes
Attachments : cover.png / small_cover.png / cover_land.png / small_cover_land.png

Video
ID : 1
Format : AVC
Format/Info : Advanced Video Codec
Format profile : [email protected]
Format settings : CABAC / 5 Ref Frames
Format settings, CABAC : Yes
Format settings, ReFrames : 5 frames
Codec ID : V_MPEG4/ISO/AVC
Duration : 1 h 40 min
Bit rate : 3 750 kb/s
Width : 1 920 pixels
Height : 800 pixels
Display aspect ratio : 2.40:1
Frame rate mode : Constant
Frame rate : 23.976 (24000/1001) FPS
Color space : YUV
Chroma subsampling : 4:2:0
Bit depth : 8 bits
Scan type : Progressive
Bits/(Pixel*Frame) : 0.102
Stream size : 2.63 GiB (81%)
Title : The.Guest.2014.1080p.BDRip.DTS.x264.Subthai.One2loadup.com
Writing library : x264 core 142 r2431 ac76440
Encoding settings : cabac=1 / ref=5 / deblock=1:-1:-1 / analyse=0x3:0x113 / me=umh / subme=6 / psy=1 / psy_rd=1.00:0.00 / mixed_ref=1 / me_range=30 / chroma_me=1 / trellis=1 / 8x8dct=1 / cqm=2 / deadzone=21,11 / fast_pskip=0 / chroma_qp_offset=-2 / threads=12 / lookahead_threads=3 / sliced_threads=0 / nr=0 / decimate=0 / interlaced=0 / bluray_compat=0 / constrained_intra=0 / bframes=5 / b_pyramid=2 / b_adapt=2 / b_bias=0 / direct=3 / weightb=1 / open_gop=0 / weightp=2 / keyint=240 / keyint_min=23 / scenecut=40 / intra_refresh=0 / rc_lookahead=50 / rc=2pass / mbtree=1 / bitrate=3750 / ratetol=1.0 / qcomp=0.60 / qpmin=1 / qpmax=69 / qpstep=4 / cplxblur=20.0 / qblur=0.5 / vbv_maxrate=62500 / vbv_bufsize=78125 / nal_hrd=none / filler=0 / ip_ratio=1.40 / aq=1:1.00
Language : English
Default : Yes
Forced : No

Audio
ID : 2
Format : DTS
Format/Info : Digital Theater Systems
Codec ID : A_DTS
Duration : 1 h 40 min
Bit rate mode : Constant
Bit rate : 755 kb/s
Channel(s) : 6 channels
Channel layout : C L R Ls Rs LFE
Sampling rate : 48.0 kHz
Frame rate : 93.750 FPS (512 SPF)
Bit depth : 24 bits
Compression mode : Lossy
Stream size : 542 MiB (16%)
Title : DTS 768
Language : English
Default : Yes
Forced : No

Text #1
ID : 3
Format : VobSub
Codec ID : S_VOBSUB
Codec ID/Info : Picture based subtitle format used on DVDs
Duration : 1 h 35 min
Bit rate : 2 118 b/s
Count of elements : 1154
Stream size : 1.44 MiB (0%)
Title : 480P TSA
Language : Thai
Default : No
Forced : No

Text #2
ID : 4
Format : VobSub
Codec ID : S_VOBSUB
Codec ID/Info : Picture based subtitle format used on DVDs
Duration : 1 h 35 min
Bit rate : 7 800 b/s
Count of elements : 1154
Stream size : 5.32 MiB (0%)
Title : 1080P AS
Language : Thai
Default : No
Forced : No

Text #3
ID : 5
Format : VobSub
Codec ID : S_VOBSUB
Codec ID/Info : Picture based subtitle format used on DVDs
Duration : 1 h 35 min
Bit rate : 7 189 b/s
Count of elements : 1154
Stream size : 4.90 MiB (0%)
Title : 1080P TSA
Language : Thai
Default : No
Forced : No

Text #4
ID : 6
Format : VobSub
Codec ID : S_VOBSUB
Codec ID/Info : Picture based subtitle format used on DVDs
Duration : 1 h 35 min
Bit rate : 7 189 b/s
Count of elements : 1154
Stream size : 4.90 MiB (0%)
Title : 1080P TSA UNDER
Language : Thai
Default : Yes
Forced : Yes

Text #5
ID : 7
Format : UTF-8
Codec ID : S_TEXT/UTF8
Codec ID/Info : UTF-8 Plain Text
Duration : 1 h 35 min
Bit rate : 116 b/s
Count of elements : 1156
Stream size : 81.2 KiB (0%)
Title : SRT
Language : Thai
Default : No
Forced : No

Text #6
ID : 8
Format : UTF-8
Codec ID : S_TEXT/UTF8
Codec ID/Info : UTF-8 Plain Text
Duration : 1 h 34 min
Bit rate : 55 b/s
Count of elements : 1434
Stream size : 38.5 KiB (0%)
Title : SRT
Language : English
Default : No
Forced : No

Text #7
ID : 9
Format : PGS
Codec ID : S_HDMV/PGS
Codec ID/Info : Picture based subtitle format used on BDs/HD-DVDs
Duration : 1 h 35 min
Bit rate : 33.3 kb/s
Count of elements : 2308
Stream size : 22.7 MiB (1%)
Title : AS
Language : Thai
Default : No
Forced : No

Text #8
ID : 10
Format : PGS
Codec ID : S_HDMV/PGS
Codec ID/Info : Picture based subtitle format used on BDs/HD-DVDs
Duration : 1 h 35 min
Bit rate : 31.3 kb/s
Count of elements : 2308
Stream size : 21.4 MiB (1%)
Title : TSA
Language : Thai
Default : No
Forced : No

Text #9
ID : 11
Format : PGS
Codec ID : S_HDMV/PGS
Codec ID/Info : Picture based subtitle format used on BDs/HD-DVDs
Duration : 1 h 35 min
Bit rate : 31.3 kb/s
Count of elements : 2308
Stream size : 21.4 MiB (1%)
Title : TSA UNDER
Language : Thai
Default : No
Forced : No

Menu
00:00:00.000 : en:Chapter 01
00:05:38.129 : en:Chapter 02
00:09:36.158 : en:Chapter 03
00:15:39.772 : en:Chapter 04
00:20:37.653 : en:Chapter 05
00:26:07.357 : en:Chapter 06
00:31:22.422 : en:Chapter 07
00:36:32.940 : en:Chapter 08
00:40:39.478 : en:Chapter 09
00:46:43.258 : en:Chapter 10
00:49:52.531 : en:Chapter 11
00:55:04.217 : en:Chapter 12
01:00:38.926 : en:Chapter 13
01:04:13.349 : en:Chapter 14
01:09:22.741 : en:Chapter 15
01:15:38.408 : en:Chapter 16
01:20:08.053 : en:Chapter 17
01:25:00.678 : en:Chapter 18
01:30:15.201 : en:Chapter 19
01:35:42.903 : en:Chapter 20
01:40:24.768 : en:Chapter 21

DOWNLOAD


PART01 |||| PART02 |||| PART03 |||| PART04

PART01 |||| PART02 |||| PART03 |||| PART04

PART01 |||| PART02 |||| PART03 |||| PART04

PART01 |||| PART02 |||| PART03 |||| PART04


Leave A Reply

Your email address will not be published.

%d bloggers like this: