[ฝรั่ง] The Golem (2018) อมนุษย์พิทักษ์หมู่บ้าน [1080p] [พากย์อังกฤษ 5.1] [Soundtrack บรรยายไทย (แปล)] [เสียงอังกฤษ + ซับไทย] [OPENLOAD]

0

The Golem (2018)

โหลดหนัง The Golem (2018) อมนุษย์พิทักษ์หมู่บ้าน

The Golem (2018) 1h 35min | Horror | 24 January 2019 (Israel) Summary: During an outbreak of a deadly plague, a mystical woman must save her tight-knit Jewish community from foreign invaders, but the entity she conjures to protect them is a far greater evil.
Countries: IsraelLanguages: English

เรื่องย่อ The Golem (2018) อมนุษย์พิทักษ์หมู่บ้าน

เรื่องราวของชุมชนชาวยิวใน Kiev, Ukraine ที่วันหนึ่งเกิดโรคระบาดอย่างหนักขึ้นภายในชุมชนและพ ื้นที่ใกล้เคียง ทำให้หมอประจำชุมชนเป็นสิ่งจำเป็นอย่างยิ่งสำหรับดูแ ลรักษาผู้ป่วย ปรากฏอยู่มาวันหนึ่งมีพวกกลุ่มคนจากต่างถิ่นพร้อมอาว ุธครบมือบุกเข้ามาทำร้ายผู้คนภายในชุมชนเเห่งนี้ แถมมันยังจับตัวหมอของชุมชนออกไปกักขังไว้ที่ชุมชนขอ งพวกมันอีกด้วย(เอาไปรักษาอาการป่วยของลูกสาวหัวหน้า จอมโหด) เรื่องนี้จึงร้อนไปถึงนางเอกของเรื่องอย่าง Hanna (รับบทโดย Hani Furstenberg) ที่ต้องแอบหนีเข้าป่าไปปั้นดินเหนียวแล้วเสกคาถาปลุก ให้มันฟื้นขึ้นมาเพื่อพิทักษ์ชุมชนและสู้กับกลุ่มคนจ ากต่างถิ่นสุดโหดอย่างถึงพริกถึงขิง ซึ่งหุ่นดินเหนียวตนนี้เองมีอำนาจคล้ายยักษ์-อมนุษย์ที่พร้อมทำตามคำสั่งของ Hanna อย่างยอมตายถวายหัวทุกประการ โดย Hanna ทำการผูกชีวิตไว้กับหุ่นตัวดังกล่าวด้วย โดยถ้าหุ่นดินเหนียวถูกทำร้าย Hanna ก็จะได้รับบาดเจ็บตามไปด้วย เเละถ้าหุ่นดินเหนียวถูกทำให้ตาย Hanna ก็จะต้องตายตามมันไปด้วย(คุณสมบัติข้อนี้จึงคล้าย “แสตนด์” จากมังงะเรื่อง “โจโจ้ล่า ข้ามศตวรรษ” ) โดย Hanna เเละคนในชุมชนชาวยิวเรียกชื่อหุ่นดินเหนียวตนนี้ว่า “Golem”…!!!

Complete name : The.Golem.2018.1080p.WEB-DL.AC3.Subthai.One2loadup.com.mkv
Format : Matroska
Format version : Version 4
File size : 3.76 GiB
Duration : 1 h 34 min
Overall bit rate : 5 674 kb/s
Movie name : The.Golem.2018.1080p.WEB-DL.AC3.Subthai.One2loadup.com
Encoded date : UTC 2019-06-29 02:53:29
Writing application : mkvmerge v8.3.0 (‘Over the Horizon’) 64bit
Writing library : libebml v1.3.1 + libmatroska v1.4.2

Video
ID : 1
Format : AVC
Format/Info : Advanced Video Codec
Format profile : [email protected]
Format settings : CABAC / 4 Ref Frames
Format settings, CABAC : Yes
Format settings, ReFrames : 4 frames
Codec ID : V_MPEG4/ISO/AVC
Duration : 1 h 34 min
Bit rate mode : Constant
Bit rate : 4 995 kb/s
Nominal bit rate : 10 000 kb/s
Width : 1 920 pixels
Height : 816 pixels
Display aspect ratio : 2.35:1
Frame rate mode : Constant
Frame rate : 23.976 (24000/1001) FPS
Color space : YUV
Chroma subsampling : 4:2:0
Bit depth : 8 bits
Scan type : Progressive
Bits/(Pixel*Frame) : 0.133
Stream size : 3.31 GiB (88%)
Title : The.Golem.2018.1080p.WEB-DL.AC3.Subthai.One2loadup.com
Default : Yes
Forced : No
Color range : Limited
Color primaries : BT.709
Transfer characteristics : BT.709
Matrix coefficients : BT.709

Audio
ID : 2
Format : E-AC-3
Format/Info : Enhanced AC-3
Commercial name : Dolby Digital Plus
Codec ID : A_EAC3
Duration : 1 h 34 min
Bit rate mode : Constant
Bit rate : 640 kb/s
Channel(s) : 6 channels
Channel layout : L R C LFE Ls Rs
Sampling rate : 48.0 kHz
Frame rate : 31.250 FPS (1536 SPF)
Compression mode : Lossy
Stream size : 434 MiB (11%)
Title : English 5.1
Language : English
Service kind : Complete Main
Default : Yes
Forced : No

Text #1
ID : 3
Format : UTF-8
Codec ID : S_TEXT/UTF8
Codec ID/Info : UTF-8 Plain Text
Duration : 1 h 30 min
Bit rate : 20 b/s
Count of elements : 598
Stream size : 13.7 KiB (0%)
Title : English
Language : English
Default : No
Forced : No

Text #2
ID : 4
Format : VobSub
Muxing mode : zlib
Codec ID : S_VOBSUB
Codec ID/Info : Picture based subtitle format used on DVDs
Duration : 1 h 31 min
Bit rate : 624 b/s
Count of elements : 451
Stream size : 418 KiB (0%)
Title : Thai 480P
Language : Thai
Default : No
Forced : No

Text #3
ID : 5
Format : VobSub
Muxing mode : zlib
Codec ID : S_VOBSUB
Codec ID/Info : Picture based subtitle format used on DVDs
Duration : 1 h 31 min
Bit rate : 1 105 b/s
Count of elements : 451
Stream size : 740 KiB (0%)
Title : Thai 720P
Language : Thai
Default : No
Forced : No

Text #4
ID : 6
Format : VobSub
Muxing mode : zlib
Codec ID : S_VOBSUB
Codec ID/Info : Picture based subtitle format used on DVDs
Duration : 1 h 31 min
Bit rate : 1 802 b/s
Count of elements : 451
Stream size : 1.18 MiB (0%)
Title : Thai 1080P
Language : Thai
Default : No
Forced : No

Text #5
ID : 7
Format : VobSub
Muxing mode : zlib
Codec ID : S_VOBSUB
Codec ID/Info : Picture based subtitle format used on DVDs
Duration : 1 h 31 min
Bit rate : 2 238 b/s
Count of elements : 451
Stream size : 1.46 MiB (0%)
Title : Thai 1080P BIG
Language : Thai
Default : No
Forced : No

Text #6
ID : 8
Format : VobSub
Muxing mode : zlib
Codec ID : S_VOBSUB
Codec ID/Info : Picture based subtitle format used on DVDs
Duration : 1 h 31 min
Bit rate : 1 802 b/s
Count of elements : 451
Stream size : 1.18 MiB (0%)
Title : Thai 1080P OUT
Language : Thai
Default : No
Forced : No

Text #7
ID : 9
Format : VobSub
Muxing mode : zlib
Codec ID : S_VOBSUB
Codec ID/Info : Picture based subtitle format used on DVDs
Duration : 1 h 31 min
Bit rate : 2 238 b/s
Count of elements : 451
Stream size : 1.46 MiB (0%)
Title : Thai 1080P BIG[OUT]
Language : Thai
Default : No
Forced : No

Text #8
ID : 10
Format : VobSub
Muxing mode : zlib
Codec ID : S_VOBSUB
Codec ID/Info : Picture based subtitle format used on DVDs
Duration : 1 h 31 min
Bit rate : 1 804 b/s
Count of elements : 451
Stream size : 1.18 MiB (0%)
Title : Thai 1080P Yellow
Language : Thai
Default : No
Forced : No

Text #9
ID : 11
Format : PGS
Muxing mode : zlib
Codec ID : S_HDMV/PGS
Codec ID/Info : Picture based subtitle format used on BDs/HD-DVDs
Duration : 1 h 31 min
Bit rate : 6 169 b/s
Count of elements : 902
Stream size : 4.03 MiB (0%)
Title : Thai PGS
Language : Thai
Default : Yes
Forced : No

Text #10
ID : 12
Format : PGS
Muxing mode : zlib
Codec ID : S_HDMV/PGS
Codec ID/Info : Picture based subtitle format used on BDs/HD-DVDs
Duration : 1 h 31 min
Bit rate : 7 776 b/s
Count of elements : 902
Stream size : 5.08 MiB (0%)
Title : Thai PGS BIG
Language : Thai
Default : No
Forced : No

Text #11
ID : 13
Format : PGS
Muxing mode : zlib
Codec ID : S_HDMV/PGS
Codec ID/Info : Picture based subtitle format used on BDs/HD-DVDs
Duration : 1 h 31 min
Bit rate : 6 170 b/s
Count of elements : 902
Stream size : 4.03 MiB (0%)
Title : Thai PGS OUT
Language : Thai
Default : No
Forced : No

Text #12
ID : 14
Format : PGS
Muxing mode : zlib
Codec ID : S_HDMV/PGS
Codec ID/Info : Picture based subtitle format used on BDs/HD-DVDs
Duration : 1 h 31 min
Bit rate : 6 213 b/s
Count of elements : 902
Stream size : 4.06 MiB (0%)
Title : Thai PGS Yellow
Language : Thai
Default : No
Forced : No

DOWNLOAD


PART01 |||| PART02 |||| PART03 |||| PART04

PART01 |||| PART02 |||| PART03 |||| PART04

PART01 |||| PART02 |||| PART03 |||| PART04

PART01 |||| PART02 |||| PART03 |||| PART04


Leave A Reply

Your email address will not be published.

%d bloggers like this: