[ฝรั่ง] Superintelligence (2020) [1080p] [พากย์ไทย 2.0 + เสียงอังกฤษ 5.1] [บรรยายไทย + อังกฤษ] [เสียงไทยมาสเตอร์ + ซับไทย] [PANDAFILE]

0

โหลดหนัง Superintelligence (2020)

Superintelligence (2020) 106min | Comedy, Romance, Sci-Fi | 26 November 2020 (USA) Summary: When an all-powerful Superintelligence chooses to study average Carol Peters, the fate of the world hangs in the balance. As the A.I. decides to enslave, save or destroy humanity, it's up to Carol to prove that people are worth saving.
Countries: USALanguages: English

เรื่องย่อ Superintelligence (2020)

เมื่อ Superintelligence ปัญญาประดิษฐที่ทรงพลัง เลือก Carol Peters เพื่อที่จะศึกษาพฤติกรรมของเธอ โดยเฉลี่ยชะตากรรมของโลกก็แขวนอยู่ในความสมดุล เมื่อ AI ตัดสินใจที่จะช่วยเหลือหรือทำลายมนุษยชาติ ก็ขึ้นอยู่กับการพิสูจน์ของ แครอล ว่าผู้คนควรค่าแก่การช่วยชีวิตหรือไม่

Complete name : Superintelligence.2020.1080p.HBO.WEB-DL.AC3.x264.THM.One2loadup.com.mkv
Format : Matroska
Format version : Version 4
File size : 4.10 GiB
Duration : 1 h 45 min
Overall bit rate : 5 552 kb/s
Movie name : Superintelligence.2020.1080p.HBO.WEB-DL.AC3.x264.THM.One2loadup.com
Encoded date : UTC 2021-04-28 01:08:17
Writing application : mkvmerge v56.1.0 (‘My Friend’) 64-bit
Writing library : libebml v1.4.2 + libmatroska v1.6.4

Video
ID : 1
Format : AVC
Format/Info : Advanced Video Codec
Format profile : [email protected]
Format settings : CABAC / 1 Ref Frames
Format settings, CABAC : Yes
Format settings, Reference : 1 frame
Format settings, GOP : M=1, N=25
Codec ID : V_MPEG4/ISO/AVC
Duration : 1 h 45 min
Bit rate mode : Constant
Bit rate : 5 014 kb/s
Width : 1 920 pixels
Height : 804 pixels
Display aspect ratio : 2.40:1
Frame rate mode : Constant
Frame rate : 29.970 (30000/1001) FPS
Color space : YUV
Chroma subsampling : 4:2:0
Bit depth : 8 bits
Scan type : Progressive
Bits/(Pixel*Frame) : 0.108
Stream size : 3.70 GiB (90%)
Title : Superintelligence.2020.1080p.HBO.WEB-DL.AC3.x264.THM.One2loadup.com
Language : Thai
Default : Yes
Forced : No

Audio #1
ID : 2
Format : AC-3
Format/Info : Audio Coding 3
Commercial name : Dolby Digital
Codec ID : A_AC3
Duration : 1 h 45 min
Bit rate mode : Constant
Bit rate : 256 kb/s
Channel(s) : 2 channels
Channel layout : L R
Sampling rate : 44.1 kHz
Frame rate : 28.711 FPS (1536 SPF)
Compression mode : Lossy
Stream size : 194 MiB (5%)
Title : Thai Master 2.0
Language : Thai
Service kind : Complete Main
Default : Yes
Forced : No

Audio #2
ID : 3
Format : AC-3
Format/Info : Audio Coding 3
Commercial name : Dolby Digital
Codec ID : A_AC3
Duration : 1 h 45 min
Bit rate mode : Constant
Bit rate : 256 kb/s
Channel(s) : 6 channels
Channel layout : L R C LFE Ls Rs
Sampling rate : 44.1 kHz
Frame rate : 28.711 FPS (1536 SPF)
Compression mode : Lossy
Stream size : 194 MiB (5%)
Title : English 5.1
Language : English
Service kind : Complete Main
Default : No
Forced : No

Text #1
ID : 4
Format : VobSub
Muxing mode : zlib
Codec ID : S_VOBSUB
Codec ID/Info : Picture based subtitle format used on DVDs
Duration : 1 h 45 min
Bit rate : 22.3 kb/s
Count of elements : 2124
Stream size : 16.8 MiB (0%)
Title : Thai Vob White 1080p
Language : Thai
Default : Yes
Forced : No

Text #2
ID : 5
Format : VobSub
Muxing mode : zlib
Codec ID : S_VOBSUB
Codec ID/Info : Picture based subtitle format used on DVDs
Duration : 1 h 41 min
Bit rate : 25.6 kb/s
Count of elements : 4179
Stream size : 18.6 MiB (0%)
Title : English SDH Vob 1080p
Language : English
Default : No
Forced : No

DOWNLOAD


PART01 |||| PART02 |||| PART03 |||| PART04 |||| PART05

PART01 |||| PART02 |||| PART03 |||| PART04 |||| PART05

PART01 |||| PART02 |||| PART03 |||| PART04 |||| PART05

PART01 |||| PART02 |||| PART03 |||| PART04 |||| PART05

PART01 |||| PART02 |||| PART03 |||| PART04 |||| PART05


Leave A Reply

Your email address will not be published.

%d bloggers like this: