[ฝรั่ง] Soul (2020) อัศจรรย์วิญญาณอลเวง [1080p] [พากย์ไทยโรง 2.0 + เสียงอังกฤษ 5.1] [บรรยายไทย (แปล)] [เสียงไทยโรง + ซับไทย] [DOSYAUPLOAD]

0

โหลดหนัง Soul (2020) อัศจรรย์วิญญาณอลเว

Soul (2020) 1h 40min | Animation, Adventure, Comedy | 25 December 2020 (USA) Summary: A musician who has lost his passion for music is transported out of his body and must find his way back with the help of an infant soul learning about herself.
Countries: USALanguages: English

เรื่องย่อ Soul (2020) อัศจรรย์วิญญาณอลเว

อะไรที่ทำให้คุณ…เป็นคุณ ? ภาพยนตร์เรื่องใหม่ล่าสุดจากพิกซาร์แอนิเมชั่นสตูดิโอส์ SOUL มหัศจรรย์วิญญาณอลเวง จะพาคุณไปรู้ตักกับโจการ์ดเนอร์ ครูผู้ควบคุมวงดนตรีโรงเรียงมัธยมแห่งหนึ่งที่ได้รับโอกาสสุดยิ่งใหญ่ในชีวิตที่จะได้เล่นในแจ๊สคลับที่ดีที่สุดในเมือง แต่การก้าวพลาดเพียงหนึ่งก้าวเล็ก ๆ ได้พาเขาจากถนนในมหานครนิวยอร์กไปสู่นครก่อนเกิด สถานที่มหัศจรรย์ที่ซึ่งเหล่าวิญญาณดวงใหม่จะได้รับบุคลิกภาพ พฤติกรรมแปลกๆ และความสนใจ ก่อนที่จะไปเกิดบนโลก ด้วยความมุ่งมั่นที่จะกลับไปสู่ชีวิตของเขา โจ ร่วมมือกับวิญญาณจอมแก่แดดที่ชื่อ ทเวนตี้ทู ผู้ที่ไม่เคยเข้าใจความเย้ายวนของประสบการณ์การเป็นมนุษย์ ในขณะที่โจพยายามทำให้ทเวนตี้ทูได้เห็นข้อดีของการมี ชีวิตอยู่

Complete name : Soul.2020.1080p.DSNP.WEBRip.EAC3.x264.THR.One2loadup.com.mkv
Format : Matroska
Format version : Version 4
File size : 5.41 GiB
Duration : 1 h 40 min
Overall bit rate mode : Variable
Overall bit rate : 7 698 kb/s
Encoded date : UTC 2021-01-02 11:30:32
Writing application : mkvmerge v20.0.0 (‘I Am The Sun’) 64-bit
Writing library : libebml v1.3.5 + libmatroska v1.4.8

Video
ID : 1
Format : AVC
Format/Info : Advanced Video Codec
Format profile : [email protected]
Format settings : CABAC / 4 Ref Frames
Format settings, CABAC : Yes
Format settings, ReFrames : 4 frames
Codec ID : V_MPEG4/ISO/AVC
Duration : 1 h 40 min
Bit rate mode : Variable
Bit rate : 6 700 kb/s
Maximum bit rate : 12.7 Mb/s
Width : 1 920 pixels
Height : 1 080 pixels
Display aspect ratio : 16:9
Frame rate mode : Constant
Frame rate : 23.976 (24000/1001) FPS
Color space : YUV
Chroma subsampling : 4:2:0
Bit depth : 8 bits
Scan type : Progressive
Bits/(Pixel*Frame) : 0.135
Stream size : 4.70 GiB (87%)
Default : Yes
Forced : No
Color range : Limited
Color primaries : BT.709
Transfer characteristics : BT.709
Matrix coefficients : BT.709

Audio #1
ID : 2
Format : E-AC-3 JOC
Format/Info : Enhanced AC-3 with Joint Object Coding
Commercial name : Dolby Digital Plus with Dolby Atmos
Codec ID : A_EAC3
Duration : 1 h 40 min
Bit rate mode : Constant
Bit rate : 768 kb/s
Channel(s) : 6 channels
Channel layout : L R C LFE Ls Rs
Sampling rate : 48.0 kHz
Frame rate : 31.250 FPS (1536 SPF)
Compression mode : Lossy
Stream size : 552 MiB (10%)
Title : English
Language : English
Service kind : Complete Main
Default : No
Forced : No
Complexity index : 16
Number of dynamic objects : 15
Bed channel count : 1 channel
Bed channel configuration : LFE

Audio #2
ID : 3
Format : AC-3
Format/Info : Audio Coding 3
Commercial name : Dolby Digital
Codec ID : A_AC3
Duration : 1 h 40 min
Bit rate mode : Constant
Bit rate : 192 kb/s
Channel(s) : 2 channels
Channel layout : L R
Sampling rate : 44.1 kHz
Frame rate : 28.711 FPS (1536 SPF)
Bit depth : 16 bits
Compression mode : Lossy
Stream size : 138 MiB (2%)
Title : Thai Rong 2.0 – Kenobiiz [email protected]
Language : Thai
Service kind : Complete Main
Default : No
Forced : No

Text
ID : 4
Format : PGS
Codec ID : S_HDMV/PGS
Codec ID/Info : Picture based subtitle format used on BDs/HD-DVDs
Duration : 1 h 40 min
Bit rate : 35.9 kb/s
Count of elements : 3186
Stream size : 25.7 MiB (0%)
Title : Thai PGS – Kenobiiz [email protected]
Language : Thai
Default : Yes
Forced : No

DOWNLOAD


PART01 |||| PART02 |||| PART03 |||| PART04 |||| PART05 |||| PART06

PART01 |||| PART02 |||| PART03 |||| PART04 |||| PART05 |||| PART06

PART01 |||| PART02 |||| PART03 |||| PART04 |||| PART05 |||| PART06

PART01 |||| PART02 |||| PART03 |||| PART04 |||| PART05 |||| PART06

PART01 |||| PART02 |||| PART03 |||| PART04 |||| PART05 |||| PART06



แจ้งหนังเสีย หรือโหลดไม่ได้ ทั้งลิ้งฟรีและ vip สามารถกดที่รูปด้านบนนี้ได้เลย

: Disable Comments
%d bloggers like this: