[ฝรั่ง] Semper Fi (2019) แผนระห่ำ ตำรวจพันธุ์เดือด [1080p] [พากย์ไทย 2.0 + พากย์อังกฤษ 5.1] [บรรยายอังกฤษ] [เสียงไทยมาสเตอร์ + ซับอังกฤษ] [PANDAFILE]

0

โหลดหนัง Semper Fi (2019) แผนระห่ำ ตำรวจพันธุ์เดือด

Semper Fi (2019) 1h 39min | Action, Drama | 4 October 2019 (USA) Summary: A police officer who serves in the Marine Corps Reserves is faced with an ethical dilemma when it comes to helping his brother in prison.
Countries: UK, USALanguages: English

เรื่องย่อ Semper Fi (2019) แผนระห่ำ ตำรวจพันธุ์เดือด

คัลลาแฮน (ไจ คอร์ทนีย์) เจ้าหน้าที่ตำรวจหนุ่มได้รวมกลุ่มเพื่อนในวัยเด็กที่ เป็นทหารกองหนุนนาวิกโยธินมาด้วยกัน แต่เมื่อ ออยสเตอร์ (แน็ต วูลฟ์) น้องชายของเขาพลั้งมือฆ่าคนอย่างไม่ได้ตั้งใจหลังจาก การทะเลาะในบาร์และพยายามหนี เขาได้รับโทษจำคุกอย่างไม่ยุติธรรม คัลลาแฮนอยู่ในภาวะที่กลืนไม่เข้าคายไม่ออกทางจริยธรรม และได้ตัดสินใจที่จะชิงตัวน้องชายของเขาออกมาจากคุก

Complete name : Semper.Fi.2019.1080p.BluRay.AC3.x29674.THM.One2loadup.com.mkv
Format : Matroska
Format version : Version 4
File size : 3.64 GiB
Duration : 1 h 39 min
Overall bit rate : 5 232 kb/s
Movie name : Semper.Fi.2019.1080p.BluRay.AC3.x29674.THM.One2loadup.com
Encoded date : UTC 2020-11-11 15:33:19
Writing application : mkvmerge v48.0.0 (‘Fortress Around Your Heart’) 64-bit
Writing library : libebml v1.4.0 + libmatroska v1.6.0

Video
ID : 1
Format : AVC
Format/Info : Advanced Video Codec
Format profile : [email protected]
Format settings : CABAC / 4 Ref Frames
Format settings, CABAC : Yes
Format settings, ReFrames : 4 frames
Codec ID : V_MPEG4/ISO/AVC
Duration : 1 h 39 min
Bit rate : 4 500 kb/s
Width : 1 920 pixels
Height : 804 pixels
Display aspect ratio : 2.40:1
Frame rate mode : Constant
Frame rate : 23.976 (24000/1001) FPS
Color space : YUV
Chroma subsampling : 4:2:0
Bit depth : 8 bits
Scan type : Progressive
Bits/(Pixel*Frame) : 0.122
Stream size : 3.02 GiB (83%)
Title : Semper.Fi.2019.1080p.BluRay.AC3.x29674.THM.One2loadup.com
Writing library : x264 core 157 r2935 545de2f
Encoding settings : cabac=1 / ref=1 / deblock=1:0:0 / analyse=0x3:0x113 / me=hex / subme=2 / psy=1 / psy_rd=1.00:0.00 / mixed_ref=0 / me_range=16 / chroma_me=1 / trellis=0 / 8x8dct=1 / cqm=0 / deadzone=21,11 / fast_pskip=1 / chroma_qp_offset=0 / threads=10 / lookahead_threads=3 / sliced_threads=0 / nr=0 / decimate=1 / interlaced=0 / bluray_compat=0 / constrained_intra=0 / bframes=3 / b_pyramid=2 / b_adapt=1 / b_bias=0 / direct=1 / weightb=1 / open_gop=0 / weightp=1 / keyint=240 / keyint_min=24 / scenecut=40 / intra_refresh=0 / rc_lookahead=10 / rc=abr / mbtree=1 / bitrate=4500 / ratetol=1.0 / qcomp=0.60 / qpmin=0 / qpmax=69 / qpstep=4 / ip_ratio=1.40 / aq=1:1.00
Default : Yes
Forced : No
Color range : Limited
Color primaries : BT.709
Transfer characteristics : BT.709
Matrix coefficients : BT.709

Audio #1
ID : 2
Format : AC-3
Format/Info : Audio Coding 3
Commercial name : Dolby Digital
Codec ID : A_AC3
Duration : 1 h 39 min
Bit rate mode : Constant
Bit rate : 448 kb/s
Channel(s) : 2 channels
Channel layout : L R
Sampling rate : 48.0 kHz
Frame rate : 31.250 FPS (1536 SPF)
Bit depth : 16 bits
Compression mode : Lossy
Delay relative to video : -5 ms
Stream size : 320 MiB (9%)
Language : Thai
Service kind : Complete Main
Default : Yes
Forced : No

Audio #2
ID : 3
Format : E-AC-3
Format/Info : Enhanced AC-3
Commercial name : Dolby Digital Plus
Codec ID : A_EAC3
Duration : 1 h 39 min
Bit rate mode : Constant
Bit rate : 448 kb/s
Channel(s) : 6 channels
Channel layout : L R C LFE Ls Rs
Sampling rate : 48.0 kHz
Frame rate : 31.250 FPS (1536 SPF)
Compression mode : Lossy
Delay relative to video : -5 ms
Stream size : 320 MiB (9%)
Language : English
Service kind : Complete Main
Default : No
Forced : No

Text
ID : 4
Format : UTF-8
Codec ID : S_TEXT/UTF8
Codec ID/Info : UTF-8 Plain Text
Duration : 1 h 32 min
Bit rate : 68 b/s
Count of elements : 1535
Stream size : 46.4 KiB (0%)
Language : Finnish
Default : Yes
Forced : No

DOWNLOAD


PART01 |||| PART02 |||| PART03 |||| PART04

PART01 |||| PART02 |||| PART03 |||| PART04

PART01 |||| PART02 |||| PART03 |||| PART04

PART01 |||| PART02 |||| PART03 |||| PART04

PART01 |||| PART02 |||| PART03 |||| PART04



แจ้งหนังเสีย หรือโหลดไม่ได้ ทั้งลิ้งฟรีและ vip สามารถกดที่รูปด้านบนนี้ได้เลย

: Disable Comments
%d bloggers like this: