[ฝรั่ง] S.M.A.R.T.Chase (2017) แผนไล่ล่า สุดระห่ำ [1080p] [พากย์ไทย 2.0 + เสียงอังกฤษ DTS] [บรรยายอังกฤษ] [เสียงไทยมาสเตอร์ + ซับอังกฤษ] [PANDAFILE]

2

โหลดหนัง S.M.A.R.T.Chase (2017) แผนไล่ล่า สุดระห่ำ

S.M.A.R.T. Chase | August 31, 2018 (United States) Summary: A washed-up private security agent has to escort a valuable Chinese antique out of Shanghai but is ambushed en route.
Countries: ChinaLanguages: English, Mandarin

เรื่องย่อ S.M.A.R.T.Chase (2017) แผนไล่ล่า สุดระห่ำ

พระเอกฮอลลีวูดแถวหน้า ออร์แลนโด้ บลูม บินลัดฟ้าไปเปิดตัวหนังแอ็คชั่นระทึกขวัญเรื่อง S.M.A.R.T. Chase ที่กรุงปักกิ่ง จีนแผ่นดินใหญ่ และเพราะหนังเรื่องนี้หวังสร้างเอาใจคอหนังชาวจีนเป็นหลัก จึงไม่แปลกที่เขาจะเป็นนักแสดงนำจากฮอลลีวูดคนเดียวท่ามกลางนักแสดงเชื้อสายจีนเกือบทั้งหมด โดย ออร์แลนโด้ ก็ให้เหตุผลที่ตกปากรับคำเล่นหนังเรื่องนี้ว่า เพราะบทหนังทำให้เขาเชื่อได้ว่าตัวเองสามารถอาศัยอยู ่ที่เซี่ยงไฮ้ ไปจนถึงตกหลุมรักสาวจีนได้ รวมถึงเรื่องราวก็สนุกและน่าสนใจมากๆ อีกด้วย หนัง S.M.A.R.T. Chase ยังร่วมแสดงโดย เยิ่นต๊ะหัว / Hannah Quinlivan และ Lei Wu (เหล่ย อู๋)

Complete name : S.M.A.R.T.Chase.2017.1080p.BluRay.x264.One2loadup.com.mkv
Format : Matroska
Format version : Version 4 / Version 2
File size : 7.55 GiB
Duration : 1 h 33 min
Overall bit rate : 11.5 Mb/s
Movie name : S.M.A.R.T.Chase.2017.1080p.BluRay.x264.One2loadup.com
Encoded date : UTC 2018-10-14 01:06:59
Writing application : mkvmerge v6.0.0 (‘Coming Up For Air’) built on Jan 20 2013 09:52:00
Writing library : libebml v1.3.0 + libmatroska v1.4.0
Cover : Yes
Attachments : cover_land.jpg / small_cover.jpg / small_cover_land.jpg / cover.jpg

Video
ID : 1
Format : AVC
Format/Info : Advanced Video Codec
Format profile : [email protected]
Format settings : CABAC / 5 Ref Frames
Format settings, CABAC : Yes
Format settings, ReFrames : 5 frames
Codec ID : V_MPEG4/ISO/AVC
Duration : 1 h 33 min
Bit rate : 9 374 kb/s
Width : 1 920 pixels
Height : 808 pixels
Display aspect ratio : 2.40:1
Frame rate mode : Constant
Frame rate : 23.976 (24000/1001) FPS
Color space : YUV
Chroma subsampling : 4:2:0
Bit depth : 8 bits
Scan type : Progressive
Bits/(Pixel*Frame) : 0.252
Stream size : 5.99 GiB (79%)
Writing library : x264 core 155 r2901 7d0ff22
Encoding settings : cabac=1 / ref=5 / deblock=1:-3:-3 / analyse=0x3:0x113 / me=umh / subme=7 / psy=1 / psy_rd=1.00:0.00 / mixed_ref=1 / me_range=16 / chroma_me=1 / trellis=1 / 8x8dct=1 / cqm=0 / deadzone=21,11 / fast_pskip=0 / chroma_qp_offset=-2 / threads=9 / lookahead_threads=1 / sliced_threads=0 / nr=0 / decimate=1 / interlaced=0 / bluray_compat=0 / constrained_intra=0 / bframes=3 / b_pyramid=2 / b_adapt=1 / b_bias=0 / direct=3 / weightb=1 / open_gop=0 / weightp=2 / keyint=240 / keyint_min=23 / scenecut=40 / intra_refresh=0 / rc_lookahead=40 / rc=2pass / mbtree=1 / bitrate=9374 / ratetol=1.0 / qcomp=0.60 / qpmin=0 / qpmax=69 / qpstep=4 / cplxblur=20.0 / qblur=0.5 / vbv_maxrate=62500 / vbv_bufsize=78125 / nal_hrd=none / filler=0 / ip_ratio=1.40 / aq=1:0.70
Default : Yes
Forced : No
Statistics Tags Issue : mkvmerge v27.0.0 (‘Metropolis’) 64-bit 2018-10-03 20:45:01 / mkvmerge v6.0.0 (‘Coming Up For Air’) built on Jan 20 2013 09:52:00 2018-10-14 01:06:59
FromStats_BitRate : 9370038
FromStats_Duration : 01:33:45.620000000
FromStats_FrameCount : 134880
FromStats_StreamSize : 6589034147

Audio #1
ID : 2
Format : AC-3
Format/Info : Audio Coding 3
Codec ID : A_AC3
Duration : 1 h 33 min
Bit rate mode : Constant
Bit rate : 640 kb/s
Channel(s) : 6 channels
Channel positions : Front: L C R, Side: L R, LFE
Sampling rate : 48.0 kHz
Frame rate : 31.250 FPS (1536 SPF)
Bit depth : 16 bits
Compression mode : Lossy
Stream size : 429 MiB (6%)
Title : Thai Master
Language : Thai
Service kind : Complete Main
Default : Yes
Forced : No

Audio #2
ID : 3
Format : DTS
Format/Info : Digital Theater Systems
Codec ID : A_DTS
Duration : 1 h 33 min
Bit rate mode : Constant
Bit rate : 1 509 kb/s
Channel(s) : 6 channels
Channel positions : Front: L C R, Side: L R, LFE
Sampling rate : 48.0 kHz
Frame rate : 93.750 FPS (512 SPF)
Bit depth : 16 bits
Compression mode : Lossy
Stream size : 1 012 MiB (13%)
Title : DTS 5.1
Language : English
Default : No
Forced : No
Statistics Tags Issue : mkvmerge v27.0.0 (‘Metropolis’) 64-bit 2018-10-03 20:45:01 / mkvmerge v6.0.0 (‘Coming Up For Air’) built on Jan 20 2013 09:52:00 2018-10-14 01:06:59
FromStats_BitRate : 1509000
FromStats_Duration : 01:33:45.632000000
FromStats_FrameCount : 527403
FromStats_StreamSize : 1061134836

Text
ID : 4
Format : UTF-8
Codec ID : S_TEXT/UTF8
Codec ID/Info : UTF-8 Plain Text
Language : English
Default : Yes
Forced : No
Statistics Tags Issue : mkvmerge v27.0.0 (‘Metropolis’) 64-bit 2018-10-03 20:45:01 / mkvmerge v6.0.0 (‘Coming Up For Air’) built on Jan 20 2013 09:52:00 2018-10-14 01:06:59
FromStats_BitRate : 7
FromStats_Duration : 01:22:45.173000000
FromStats_FrameCount : 179
FromStats_StreamSize : 4628

Menu
00:00:00.000 : :00:00:00.000
00:08:12.784 : :00:08:12.784
00:17:22.959 : :00:17:22.959
00:24:08.781 : :00:24:08.781
00:33:45.357 : :00:33:45.357
00:45:00.907 : :00:45:00.907
00:54:05.117 : :00:54:05.117
01:00:19.533 : :01:00:19.533
01:07:01.309 : :01:07:01.309
01:16:00.723 : :01:16:00.723
01:22:14.721 : :01:22:14.721
01:29:18.687 : :01:29:18.687

DOWNLOAD


PART01 |||| PART02 |||| PART03 |||| PART04

PART05 |||| PART06 |||| PART07 |||| PART08

PART01 |||| PART02 |||| PART03 |||| PART04

PART05 |||| PART06 |||| PART07 |||| PART08

PART01 |||| PART02 |||| PART03 |||| PART04

PART05 |||| PART06 |||| PART07 |||| PART08

PART01 |||| PART02 |||| PART03 |||| PART04

PART05 |||| PART06 |||| PART07 |||| PART08

PART01 |||| PART02 |||| PART03 |||| PART04

PART05 |||| PART06 |||| PART07 |||| PART08


2 Comments
  1. ha says

    ลิงค์เสียหมดแล้ว ช่วยอัพใหม่ได้มั้ยครับ ขอบคุณครับ

    1. Admin
      Admin says

      แก้ไขเรียบร้อยฮ๊ะ

Leave A Reply

อีเมล์ของคุณจะไม่แสดงให้เห็น Your email address will not be published.

%d bloggers like this: