[ฝรั่ง] Rambo: Last Blood (2019) แรมโบ้ นักรบคนสุดท้าย ภาค 5 [1080p] [พากย์ไทย 2.0 + เสียงอังกฤษ 2.0] [บรรยายไทย + อังกฤษ] [เสียงไทยมาสเตอร์ + ซับอังกฤษ] [PANDAFILE]

2

โหลดหนัง Rambo: Last Blood (2019) แรมโบ้ นักรบคนสุดท้าย ภาค 5

Rambo: Last Blood (2019) 1h 29min | Action, Adventure, Thriller | 19 September 2019 (Germany) Summary: Rambo must confront his past and unearth his ruthless combat skills to exact revenge in a final mission.
Countries: USA, Spain, BulgariaLanguages: English, Spanish

เรื่องย่อ Rambo: Last Blood (2019) แรมโบ้ นักรบคนสุดท้าย ภาค 5

พบกับการปิดตำนานครั้งยิ่งใหญ่เกือบ 40 ปีของ Rambo 5 แรมโบ้ นักรบเดนตายด้วยภารกิจโค่นทรชนที่เดือดกว่า โหดกว่า ระห่ำกว่าเก่า “ซิลเวสเตอร์ สตอลโลน” กลับมาสวมบทเป็น จอห์น แรมโบ้ อีกครั้งในรอบ 10 ปี ที่คราวนี้เขาได้กลับไปยังบ้านเกิดแสนสงบเพื่อหวังใช ้ชีวิตอย่างคนธรรมดาแต่ความสงบก็ถูกทำลายเมื่อเขาต้องเผชิญหน้ากับอดีตอั นโหดร้ายโดยมีแก๊งค้ายาชาวเม็กซิกันเป็นผู้จุดชนวน เมื่อพวกเขาจุดไฟสงคราม แรมโบ้ก็จะใช้ทักษะเก่าของนักรบเดนตายในการปิดฉากมัน

Complete name : Rambo.Last.Blood.2019.1080p.BluRay.AC3.x264.One2loadup.com.mkv
Format : Matroska
Format version : Version 4
File size : 3.74 GiB
Duration : 1 h 41 min
Overall bit rate : 5 293 kb/s
Movie name : Rambo.Last.Blood.2019.1080p.BluRay.AC3.x264.One2loadup.com
Encoded date : UTC 2020-02-10 04:40:59
Writing application : mkvmerge v43.0.0 (‘The Quartermaster’) 64-bit
Writing library : libebml v1.3.10 + libmatroska v1.5.2
Cover : Yes
Attachments : cover1.jpg

Video
ID : 1
Format : AVC
Format/Info : Advanced Video Codec
Format profile : [email protected]
Format settings : CABAC / 1 Ref Frames
Format settings, CABAC : Yes
Format settings, ReFrames : 1 frame
Format settings, GOP : M=1, N=25
Codec ID : V_MPEG4/ISO/AVC
Duration : 1 h 41 min
Bit rate mode : Constant
Bit rate : 4 000 kb/s
Width : 1 920 pixels
Height : 800 pixels
Display aspect ratio : 2.40:1
Frame rate mode : Constant
Frame rate : 29.970 (30000/1001) FPS
Color space : YUV
Chroma subsampling : 4:2:0
Bit depth : 8 bits
Scan type : Progressive
Bits/(Pixel*Frame) : 0.087
Stream size : 2.82 GiB (75%)
Title : Rambo.Last.Blood.2019.1080p.BluRay.AC3.x264.One2loadup.com
Language : English
Default : Yes
Forced : No

Audio #1
ID : 2
Format : AC-3
Format/Info : Audio Coding 3
Commercial name : Dolby Digital
Codec ID : A_AC3
Duration : 1 h 41 min
Bit rate mode : Constant
Bit rate : 640 kb/s
Channel(s) : 2 channels
Channel layout : L R
Sampling rate : 44.1 kHz
Frame rate : 28.711 FPS (1536 SPF)
Bit depth : 16 bits
Compression mode : Lossy
Stream size : 463 MiB (12%)
Title : 2.0 AC3 TH
Language : Thai
Service kind : Complete Main
Default : Yes
Forced : No

Audio #2
ID : 3
Format : AC-3
Format/Info : Audio Coding 3
Commercial name : Dolby Digital
Codec ID : A_AC3
Duration : 1 h 41 min
Bit rate mode : Constant
Bit rate : 640 kb/s
Channel(s) : 2 channels
Channel layout : L R
Sampling rate : 44.1 kHz
Frame rate : 28.711 FPS (1536 SPF)
Bit depth : 16 bits
Compression mode : Lossy
Stream size : 463 MiB (12%)
Title : 2.0 AC3 EN
Language : English
Service kind : Complete Main
Default : No
Forced : No

Text #1
ID : 4
Format : PGS
Muxing mode : zlib
Codec ID : S_HDMV/PGS
Codec ID/Info : Picture based subtitle format used on BDs/HD-DVDs
Duration : 1 h 30 min
Bit rate : 13.3 kb/s
Count of elements : 1386
Stream size : 8.61 MiB (0%)
Title : TH PGS Yellow
Language : Thai
Default : Yes
Forced : No

Text #2
ID : 5
Format : PGS
Muxing mode : zlib
Codec ID : S_HDMV/PGS
Codec ID/Info : Picture based subtitle format used on BDs/HD-DVDs
Duration : 1 h 30 min
Bit rate : 9 620 b/s
Count of elements : 1258
Stream size : 6.20 MiB (0%)
Title : EN PGS White
Language : English
Default : No
Forced : No

Menu
00:00:00.000 : :Chapter 01
00:04:50.081 : :Chapter 02
00:10:59.158 : :Chapter 03
00:14:35.791 : :Chapter 04
00:22:39.024 : :Chapter 05
00:25:11.718 : :Chapter 06
00:31:24.382 : :Chapter 07
00:36:12.253 : :Chapter 08
00:41:08.299 : :Chapter 09
00:46:37.878 : :Chapter 10
00:49:29.967 : :Chapter 11
00:55:04.926 : :Chapter 12
01:00:08.229 : :Chapter 13
01:05:57.495 : :Chapter 14
01:12:06.280 : :Chapter 15
01:17:47.287 : :Chapter 16

DOWNLOAD


PART01 |||| PART02 |||| PART03 |||| PART04

PART01 |||| PART02 |||| PART03 |||| PART04

PART01 |||| PART02 |||| PART03 |||| PART04

PART01 |||| PART02 |||| PART03 |||| PART04

PART01 |||| PART02 |||| PART03 |||| PART04


2 Comments
  1. Narabodee Wadeesirisak says

    ทำไมหนังเสียงไม่ตรงกับภาพและภาพก็ไม่ค่อยชัดครับ

    1. Admin
      Admin says

      หนังมันยังไม่ master แท้นะฮ๊ะ

Leave A Reply

Your email address will not be published.

%d bloggers like this: