[ฝรั่ง] On the Rocks (2020) ออน เดอะ ร็อค [1080p] [Apple TV] [พากย์อังกฤษ DTS] [Soundtrack + บรรยายไทย] [เสียงอังกฤษ + ซับไทย] [PANDAFILE]

0

โหลดหนัง On the Rocks (2020) ออน เดอะ ร็อค

On the Rocks (2020) 1h 36min | Adventure, Comedy, Drama | 23 October 2020 (USA) Summary: A young mother reconnects with her larger-than-life playboy father on an adventure through New York.
Countries: USALanguages: English

เรื่องย่อ On the Rocks (2020) ออน เดอะ ร็อค

เมื่อจู่ ๆ คุณแม่วัยสาวชาวนิวยอร์กเกิดแคลงใจในคู่แต่งงานของเธ อขึ้นมา จึงร่วมแท็กทีมกับคุณพ่อ เพลย์บอยหนุ่มจอมเล่นใหญ่ ช่วยกันสะกดรอยตามสามีของเธอซึ่งนี่คือจุดเริ่มต้นของการผจญภัยในเมืองใหญ่อันแสน สนุกชวนหัวเราะ แม้ต้องเผชิญกับเส้นทางสุดกวน

Complete name : On.the.Rocks.2020.1080p.APTV.WEB-DL.DTS.x264.Subthai.One2loadup.com.mkv
Format : Matroska
Format version : Version 4
File size : 7.86 GiB
Duration : 1 h 36 min
Overall bit rate : 11.6 Mb/s
Movie name : On.the.Rocks.2020.1080p.APTV.WEB-DL.DTS.x264.Subthai.One2loadup.com
Encoded date : UTC 2020-10-25 08:25:56
Writing application : mkvmerge v50.0.0 (‘Awakenings’) 64-bit
Writing library : libebml v1.4.0 + libmatroska v1.6.2

Video
ID : 1
Format : AVC
Format/Info : Advanced Video Codec
Format profile : [email protected]
Format settings : CABAC / 4 Ref Frames
Format settings, CABAC : Yes
Format settings, ReFrames : 4 frames
Codec ID : V_MPEG4/ISO/AVC
Duration : 1 h 36 min
Bit rate : 10.1 Mb/s
Width : 1 920 pixels
Height : 1 038 pixels
Display aspect ratio : 1.85:1
Frame rate mode : Constant
Frame rate : 23.976 (24000/1001) FPS
Color space : YUV
Chroma subsampling : 4:2:0
Bit depth : 8 bits
Scan type : Progressive
Bits/(Pixel*Frame) : 0.210
Stream size : 6.80 GiB (86%)
Title : On.the.Rocks.2020.1080p.APTV.WEB-DL.DTS.x264.Subthai.One2loadup.com
Language : English
Default : Yes
Forced : No
Color range : Limited
Color primaries : BT.709
Transfer characteristics : BT.709
Matrix coefficients : BT.709

Audio #1
ID : 2
Format : DTS
Format/Info : Digital Theater Systems
Codec ID : A_DTS
Duration : 1 h 36 min
Bit rate mode : Constant
Bit rate : 769 kb/s
Channel(s) : 6 channels
Channel layout : C L R Ls Rs LFE
Sampling rate : 44.1 kHz
Frame rate : 86.133 FPS (512 SPF)
Bit depth : 16 bits
Compression mode : Lossy
Stream size : 533 MiB (7%)
Title : DTS 5.1
Language : English
Default : Yes
Forced : No

Audio #2
ID : 3
Format : E-AC-3 JOC
Format/Info : Enhanced AC-3 with Joint Object Coding
Commercial name : Dolby Digital Plus with Dolby Atmos
Codec ID : A_EAC3
Duration : 1 h 36 min
Bit rate mode : Constant
Bit rate : 768 kb/s
Channel(s) : 6 channels
Channel layout : L R C LFE Ls Rs
Sampling rate : 48.0 kHz
Frame rate : 31.250 FPS (1536 SPF)
Compression mode : Lossy
Stream size : 532 MiB (7%)
Title : E-AC3 5.1
Language : English
Service kind : Complete Main
Default : No
Forced : No
Complexity index : 16
Number of dynamic objects : 15
Bed channel count : 1 channel
Bed channel configuration : LFE

Text #1
ID : 4
Format : PGS
Muxing mode : zlib
Codec ID : S_HDMV/PGS
Codec ID/Info : Picture based subtitle format used on BDs/HD-DVDs
Duration : 1 h 29 min
Bit rate : 29.5 kb/s
Count of elements : 2802
Stream size : 18.9 MiB (0%)
Language : English
Default : No
Forced : No

Text #2
ID : 5
Format : PGS
Muxing mode : zlib
Codec ID : S_HDMV/PGS
Codec ID/Info : Picture based subtitle format used on BDs/HD-DVDs
Duration : 1 h 36 min
Bit rate : 31.6 kb/s
Count of elements : 2830
Stream size : 21.7 MiB (0%)
Language : Thai
Default : Yes
Forced : No

Text #3
ID : 6
Format : UTF-8
Codec ID : S_TEXT/UTF8
Codec ID/Info : UTF-8 Plain Text
Duration : 1 h 36 min
Bit rate : 156 b/s
Count of elements : 1415
Stream size : 110 KiB (0%)
Language : Thai
Default : No
Forced : No

DOWNLOAD


PART01 |||| PART02 |||| PART03 |||| PART04 |||| PART05 |||| PART06

PART01 |||| PART02 |||| PART03 |||| PART04 |||| PART05 |||| PART06

PART01 |||| PART02 |||| PART03 |||| PART04 |||| PART05 |||| PART06

PART01 |||| PART02 |||| PART03 |||| PART04 |||| PART05 |||| PART06

PART01 |||| PART02 |||| PART03 |||| PART04 |||| PART05 |||| PART06



แจ้งหนังเสีย หรือโหลดไม่ได้ ทั้งลิ้งฟรีและ vip สามารถกดที่รูปด้านบนนี้ได้เลย

: Disable Comments
%d bloggers like this: