[ฝรั่ง] Old (2021) โอลด์ [1080p] [พากย์อังกฤษ 5.1] [Soundtrack บรรยายไทย + อังกฤษ] [เสียงอังกฤษ + ซับไทย] [USERLOAD]

0

โหลดหนัง Old (2021) โอลด์

Old 108min | Drama, Horror, Mystery, Thriller | July 23, 2021 (United States) Summary: A vacationing family discovers that the secluded beach where they're relaxing for a few hours is somehow causing them to age rapidly, reducing their entire lives into a single day.
Countries: United StatesLanguages: English

เรื่องย่อ Old (2021) โอลด์

Old จะเล่าเรื่องราวของคนกลุ่มหนึ่งที่ออกไปพักร้อนกันที่ชายหาดอันเงียบสงบเงียบแต่แล้วเรื่องลึกลับชวนขนลุกก็เกิดขึ้นเมื่อพวกเขาพบศพบนชายหาดแห่งนั้นและดูเหมือนว่ามีพลังลึกลับบางอย่างเร่งอายุของพวกเขาให้เดินหน้าเร็วขึ้นอย่างหยุดไม่ได้เหมือนกับที่โปสเตอร์หนังเล่นกับภาพนาฬิกาทรายซึ่งปล่อยออกมาก่อนหน้านี้ผู้กำกับเขียนบทหนังเรื่องนี้ตามแรงบันดาลใจจากนิยาย ภาพของฝรั่งเศสชื่อ “Sandcastle” ของ Pierre Oscar Levy กับ Frederik Peeters

Complete name : Old.2021.1080p.HDTV.AC3.x264.Subthai.One2loadup.com.mkv
Format : Matroska
Format version : Version 4
File size : 4.89 GiB
Duration : 1 h 48 min
Overall bit rate : 6 460 kb/s
Movie name : Old.2021.1080p.HDTV.AC3.x264.Subthai.One2loadup.com\
Encoded date : UTC 2021-09-17 09:38:32
Writing application : mkvmerge v61.0.0 (‘So’) 64-bit
Writing library : libebml v1.4.2 + libmatroska v1.6.4
Cover : Yes
Attachments : cover

Video
ID : 1
Format : AVC
Format/Info : Advanced Video Codec
Format profile : [email protected]
Format settings : CABAC / 4 Ref Frames
Format settings, CABAC : Yes
Format settings, Reference : 4 frames
Codec ID : V_MPEG4/ISO/AVC
Duration : 1 h 48 min
Bit rate : 6 040 kb/s
Width : 1 920 pixels
Height : 1 080 pixels
Display aspect ratio : 16:9
Frame rate mode : Constant
Frame rate : 23.976 (24000/1001) FPS
Color space : YUV
Chroma subsampling : 4:2:0
Bit depth : 8 bits
Scan type : Progressive
Bits/(Pixel*Frame) : 0.121
Stream size : 4.57 GiB (93%)
Title : Old.2021.1080p.HDTV.AC3.x264.Subthai.One2loadup.com
Default : Yes
Forced : No

Audio
ID : 2
Format : AC-3
Format/Info : Audio Coding 3
Commercial name : Dolby Digital
Codec ID : A_AC3
Duration : 1 h 48 min
Bit rate mode : Constant
Bit rate : 384 kb/s
Channel(s) : 2 channels
Channel layout : L R
Sampling rate : 44.1 kHz
Frame rate : 28.711 FPS (1536 SPF)
Compression mode : Lossy
Delay relative to video : 15 ms
Stream size : 297 MiB (6%)
Language : English
Service kind : Complete Main
Default : Yes
Forced : No

Text #1
ID : 3
Format : PGS
Muxing mode : zlib
Codec ID : S_HDMV/PGS
Codec ID/Info : Picture based subtitle format used on BDs/HD-DVDs
Duration : 1 h 40 min
Bit rate : 31.1 kb/s
Count of elements : 2838
Stream size : 22.3 MiB (0%)
Title : Thai-PGS
Language : Thai
Default : Yes
Forced : No

Text #2
ID : 4
Format : PGS
Muxing mode : zlib
Codec ID : S_HDMV/PGS
Codec ID/Info : Picture based subtitle format used on BDs/HD-DVDs
Duration : 1 h 39 min
Bit rate : 40.3 kb/s
Count of elements : 2836
Stream size : 28.8 MiB (1%)
Title : English-PGS
Language : English
Default : Yes
Forced : No

DOWNLOAD


PART01 |||| PART02 |||| PART03 |||| PART04 |||| PART05 |||| PART06

PART01 |||| PART02 |||| PART03 |||| PART04 |||| PART05 |||| PART06

PART01 |||| PART02 |||| PART03 |||| PART04 |||| PART05 |||| PART06

PART01 |||| PART02 |||| PART03 |||| PART04 |||| PART05 |||| PART06

PART01 |||| PART02 |||| PART03 |||| PART04 |||| PART05 |||| PART06


Leave A Reply

อีเมล์ของคุณจะไม่แสดงให้เห็น Your email address will not be published.

%d bloggers like this: