[ฝรั่ง] Nobody (2021) คนธรรมดานรกเรียกพี่ [1080p] [พากย์ไทยโรง 2.0 + เสียงอังกฤษ 5.1] [บรรยายไทย + อังกฤษ] [เสียงไทยโรง + ซับไทย] [PANDAFILE]

0

โหลดหนัง Nobody (2021) คนธรรมดานรกเรียกพี่

Nobody (2021) 92min | Action, Crime, Thriller | 26 March 2021 (USA) Summary: A bystander who intervenes to help a woman being harassed by a group of men becomes the target of a vengeful drug lord.
Countries: USALanguages: Spanish, Russian, English

เรื่องย่อ Nobody (2021) คนธรรมดานรกเรียกพี่

เรื่องราวของ ฮัทช์ แมนเซลล์ หนุ่มใหญ่ผู้เป็นทั้งพ่อและสามีที่มีชีวิตธรรมดาเฉกเช่นคนทั่วไป จนวันหนึ่งมีเหตุการณ์ที่โจรบุกบ้านแต่เขาก็ปฏิเสธจะไม่สู้จนทำให้ครอบครัวผิดหวังซึ่งเหตุการณ์นี้ทำให้เขาปลดปล่อยตัวตนที่ปกปิดมานาน นั่นคือ นักฆ่าอาชีพก่อนจะจัดการโจรสองคนที่บุกบ้านและตามด้ว ยช่วยเพื่อนบ้านที่ถูกกลุ่มชายฉกรรจ์ขมขู่ ขณะเดียวกันการหวนกลับมาจับอาวุธของเขาทำให้เขาและครอบครัวตกเป็นเป้าหมายของเหล่าบรรดาศัตรูที่ต้องการจะกำจัด ฮัทช์จึงต้องปกป้องครอบครัวจากพวกวายร้ายทั้งหลายให้จงได้

Complete name : Nobody.2021.1080p.WEB-DL.EAC3.x264.THR.One2loadup.com.mkv
Format : Matroska
Format version : Version 4
File size : 3.90 GiB
Duration : 1 h 32 min
Overall bit rate : 6 039 kb/s
Movie name : Nobody.2021.1080p.WEB-DL.EAC3.x264.THR.One2loadup.com
Encoded date : UTC 2021-04-18 15:50:53
Writing application : mkvmerge v56.1.0 (‘My Friend’) 64-bit
Writing library : libebml v1.4.2 + libmatroska v1.6.4

Video
ID : 1
Format : AVC
Format/Info : Advanced Video Codec
Format profile : [email protected]
Format settings : CABAC / 1 Ref Frames
Format settings, CABAC : Yes
Format settings, Reference : 1 frame
Format settings, GOP : M=1, N=25
Codec ID : V_MPEG4/ISO/AVC
Duration : 1 h 32 min
Bit rate mode : Constant
Bit rate : 5 200 kb/s
Width : 1 920 pixels
Height : 1 080 pixels
Display aspect ratio : 16:9
Frame rate mode : Constant
Frame rate : 29.970 (30000/1001) FPS
Color space : YUV
Chroma subsampling : 4:2:0
Bit depth : 8 bits
Scan type : Progressive
Bits/(Pixel*Frame) : 0.084
Stream size : 3.36 GiB (86%)
Title : Nobody.2021.1080p.WEB-DL.EAC3.x264.THR.One2loadup.com
Language : Thai
Default : Yes
Forced : No

Audio #1
ID : 2
Format : AC-3
Format/Info : Audio Coding 3
Commercial name : Dolby Digital
Codec ID : A_AC3
Duration : 1 h 31 min
Bit rate mode : Constant
Bit rate : 192 kb/s
Channel(s) : 2 channels
Channel layout : L R
Sampling rate : 48.0 kHz
Frame rate : 31.250 FPS (1536 SPF)
Compression mode : Lossy
Stream size : 126 MiB (3%)
Title : THR.2 channels.AC3.192 kb/s
Language : Thai
Service kind : Complete Main
Default : Yes
Forced : No

Audio #2
ID : 3
Format : E-AC-3
Format/Info : Enhanced AC-3
Commercial name : Dolby Digital Plus
Codec ID : A_EAC3
Duration : 1 h 31 min
Bit rate mode : Constant
Bit rate : 640 kb/s
Channel(s) : 6 channels
Channel layout : L R C LFE Ls Rs
Sampling rate : 48.0 kHz
Frame rate : 31.250 FPS (1536 SPF)
Compression mode : Lossy
Stream size : 420 MiB (10%)
Title : AC3.Dolby Digital Plus.6 channels.640 kb/s
Language : English
Service kind : Complete Main
Default : No
Forced : No

Text #1
ID : 4
Format : VobSub
Muxing mode : zlib
Codec ID : S_VOBSUB
Codec ID/Info : Picture based subtitle format used on DVDs
Duration : 1 h 26 min
Bit rate : 6 678 b/s
Count of elements : 737
Stream size : 4.14 MiB (0%)
Title : Thai Vob
Language : Thai
Default : Yes
Forced : No

Text #2
ID : 5
Format : VobSub
Muxing mode : zlib
Codec ID : S_VOBSUB
Codec ID/Info : Picture based subtitle format used on DVDs
Duration : 1 h 31 min
Bit rate : 8 901 b/s
Count of elements : 1011
Stream size : 5.83 MiB (0%)
Title : English VOB
Language : English
Default : No
Forced : No

Text #3
ID : 6
Format : VobSub
Muxing mode : zlib
Codec ID : S_VOBSUB
Codec ID/Info : Picture based subtitle format used on DVDs
Duration : 1 h 31 min
Bit rate : 11.7 kb/s
Count of elements : 1330
Stream size : 7.69 MiB (0%)
Title : English SHD Vob
Language : English
Default : No
Forced : No

DOWNLOAD


PART01 |||| PART02 |||| PART03 |||| PART04

PART01 |||| PART02 |||| PART03 |||| PART04

PART01 |||| PART02 |||| PART03 |||| PART04

PART01 |||| PART02 |||| PART03 |||| PART04

PART01 |||| PART02 |||| PART03 |||| PART04


Leave A Reply

Your email address will not be published.

%d bloggers like this: