[ฝรั่ง] Mortal Kombat (2021) มอร์ทัล คอมแบท [1080p] [พากย์ไทยโรง 2.0 + เสียงอังกฤษ] [บรรยายอังกฤษ] [เสียงไทยโรง + ซับอังกฤษ] [PANDAFILE]

0

โหลดหนัง Kombat (2021) มอร์ทัล คอมแบท

Mortal Kombat (2021) 110min | Action, Adventure, Fantasy | 23 April 2021 (USA) Summary: MMA fighter Cole Young seeks out Earth's greatest champions in order to stand against the enemies of Outworld in a high stakes battle for the universe.
Countries: Australia, USALanguages: English, Japanese

เรื่องย่อ Kombat (2021) มอร์ทัล คอมแบท

เรื่องราวของ โคล ยัง (ลูอิส ถัน) นักสู้ MMA ผู้คุ้นชินกับการชกต่อยเพื่อแลกเงิน แต่ไม่เคยรู้เรื่องราวภูมิหลังของตัวเอง และไม่รู้ว่าทำไมจักรพรรติชางจงแห่งเอาต์เวิลด์ ถึงต้องส่ง ซับซีโร่ (โจ ทาสลิม) นักรบมือหนึ่งผู้ใช้เวทย์น้ำแข็งและศาสตร์ความหนาวมาไล่ล่า โคล ให้สิ้นซาก ด้วยความกลัวว่าครอบครัวของเขาจะไม่ปลอดภัย โคล จึงออกตามหา ซอนย่า เบลด (เจสสิก้า แม็คนามี) ตามคำแนะนำของ แจ็กซ์ (เมห์แคด บรู๊คส์) นายพันหน่วยรบพิเศษผู้มีปานประหลาดรูปมังกรตั้งแต่เกิดเช่นเดียวกับ โคล จากนั้น โคล ก็ได้พบว่าเขานั้นอยู่ที่วิหารของ ลอร์ดไรเด็น (ทาดาโนบุ อาซาโนะ) เทพเจ้าอาวุโสผู้คุ้มครองเอิร์ธรีล์ม และมอบที่ลี้ภัยให้กับผู้คนที่มีปานรูปเดียวกัน ที่นั่น โคล ได้ฝึกวิทยายุทธกับนักรบผู้คร่ำหวอดในสังเวียน หลิวกัง (ลูดี้ หลิน), คุงลาว (แม็กซ์ หวง) และทหารรับจ้างเถื่อน เคโน่ (จอช ลอว์สัน) เพื่อต่อสู้เคียงข้างเหล่าแชมเปี้ยนผู้ยิ่งใหญ่ของโลกมนุษย์กับศัตรูจาก เอาต์เวิลด์ ในศึกครั้งสำคัญที่มีจักรวาลเป็นเดิมพัน แต่ โคล จะสามารถเค้นพลังลึกลับที่ซ่อนอยู่ภายในร่างกายและจิตวิญญาณของเขาออกมาได้หรือไม่ แล้วจะทันเวลาช่วยเหลือครอบครัวของเขา และหยุดการรุกของเอาต์เวิลด์ได้หรือเปล่า?

Complete name : Mortal.Kombat.2021.1080p.WEB-DL.AC3.x264.THR.One2loadup.com.mkv
Format : Matroska
Format version : Version 4
File size : 5.81 GiB
Duration : 1 h 50 min
Overall bit rate : 7 567 kb/s
Movie name : Mortal.Kombat.2021.1080p.WEB-DL.AC3.x264.THR.One2loadup.com
Encoded date : UTC 2021-04-23 07:16:51
Writing application : mkvmerge v56.0.0 (‘Strasbourg / St. Denis’) 64-bit
Writing library : libebml v1.4.2 + libmatroska v1.6.4

Video
ID : 1
Format : AVC
Format/Info : Advanced Video Codec
Format profile : [email protected]
Format settings : CABAC / 2 Ref Frames
Format settings, CABAC : Yes
Format settings, Reference : 2 frames
Codec ID : V_MPEG4/ISO/AVC
Duration : 1 h 50 min
Bit rate : 6 733 kb/s
Width : 1 920 pixels
Height : 1 080 pixels
Display aspect ratio : 16:9
Frame rate mode : Constant
Frame rate : 23.976 (24000/1001) FPS
Color space : YUV
Chroma subsampling : 4:2:0
Bit depth : 8 bits
Scan type : Progressive
Bits/(Pixel*Frame) : 0.135
Stream size : 5.17 GiB (89%)
Title : Mortal.Kombat.2021.1080p.WEB-DL.AC3.x264.THR.One2loadup.com
Writing library : x264 core 155 r2901 7d0ff22
Default : Yes
Forced : No
Color range : Limited
Color primaries : BT.709
Transfer characteristics : BT.709
Matrix coefficients : BT.709

Audio #1
ID : 2
Format : AC-3
Format/Info : Audio Coding 3
Commercial name : Dolby Digital
Codec ID : A_AC3
Duration : 1 h 50 min
Bit rate mode : Constant
Bit rate : 448 kb/s
Channel(s) : 2 channels
Channel layout : L R
Sampling rate : 48.0 kHz
Frame rate : 31.250 FPS (1536 SPF)
Compression mode : Lossy
Stream size : 353 MiB (6%)
Language : Thai
Service kind : Complete Main
Default : Yes
Forced : No

Audio #2
ID : 3
Format : AC-3
Format/Info : Audio Coding 3
Commercial name : Dolby Digital
Codec ID : A_AC3
Duration : 1 h 50 min
Bit rate mode : Constant
Bit rate : 384 kb/s
Channel(s) : 6 channels
Channel layout : L R C LFE Ls Rs
Sampling rate : 48.0 kHz
Frame rate : 31.250 FPS (1536 SPF)
Compression mode : Lossy
Stream size : 302 MiB (5%)
Language : English
Service kind : Complete Main
Default : No
Forced : No

Text
ID : 4
Format : UTF-8
Codec ID : S_TEXT/UTF8
Codec ID/Info : UTF-8 Plain Text
Duration : 1 h 41 min
Bit rate : 44 b/s
Count of elements : 1354
Stream size : 32.9 KiB (0%)
Title : SDH
Language : English
Default : No
Forced : No

DOWNLOAD


PART01 |||| PART02 |||| PART03 |||| PART04 |||| PART05 |||| PART06

PART01 |||| PART02 |||| PART03 |||| PART04 |||| PART05 |||| PART06

PART01 |||| PART02 |||| PART03 |||| PART04 |||| PART05 |||| PART06

PART01 |||| PART02 |||| PART03 |||| PART04 |||| PART05 |||| PART06

PART01 |||| PART02 |||| PART03 |||| PART04 |||| PART05 |||| PART06


Leave A Reply

Your email address will not be published.

%d bloggers like this: