[ฝรั่ง] Mayhem (2017) เชื้อคลั่ง พนักงานพันธุ์โหด [1080p] [พากย์อังกฤษ 5.1] [WEB-DL.H.264] [Master] [Soundtrack บรรยายไทย] [เสียงอังกฤษ + ซับไทย] [PANDAFILE]

0

โหลดหนัง  Mayhem (2017) เชื้อคลั่ง พนักงานพันธุ์โหด

Mayhem | November 10, 2017 (United States) Summary:
Countries: United StatesLanguages: English

เรื่องย่อ Mayhem (2017) เชื้อคลั่ง พนักงานพันธุ์โหด

สตีเว่น ยวน ตบเท้าร่วมแสดงหนังแอ็คชั่นอินดี้ที่ชื่อว่า Mayhem ซึ่งถือเป็นก้าวสำคัญในชีวิตการแสดงของเขา หลังเป็นที่รู้จักจากซีรีส์ The Walking Dead และสวมบทรับเชิญในซีรีส์เรื่องต่าง ๆ ทางโทรทัศน์ในเรื่องนี้ สตีเว่น ยวน รับบทเป็น เดเรค แซนเดอร์ส ทนายความหนุ่มที่ถูกเพื่อนร่วมงานใส่ร้าย และถูกไล่ออกจากสำนักงานกฎหมายในวันที่เชื้อไวรัสมรณ ะแพร่ระบาด โดยเชื้อไวรัสดังกล่าวเปลี่ยนคนธรรมดาให้กลายเป็นคนค ลุ้มคลั่ง เป็นเหตุให้เขาต้องติดอยู่ในอาคารกักกันเชื้อ และต่อสู้เพื่อเอาตัวรอด ต่อสู้เพื่องาน และหาทางหลบหนีไปพร้อมกันในครั้งนี้ สตีเว่น ยวน จะได้ร่วมงานกับดาราสาวชาวออสเตรเลีย ซามาร่า วีวิง (Samara Weaving) ที่กำลังจะมีหนังสยองขวัญ The Babysitter ปล่อยออกมาในปี 2016 ส่วนผู้กำกับของโปรเจคท์นี้ ได้แก่ โจ ลินช์ (Joe Lynch) จากหนังแอ็คชั่น Everly ที่นำแสดงโดย ซัลมา ฮาเยก

Complete name : Mayhem.2017.1080p.WEB-DL.DD5.1.SUBThai.x264.One2loadup.com.mkv
Format : Matroska
Format version : Version 4 / Version 2
File size : 3.05 GiB
Duration : 1 h 27 min
Overall bit rate : 4 967 kb/s
Movie name : Mayhem.2017.1080p.WEB-DL.DD5.1.SUBThai.x264.One2loadup.com
Encoded date : UTC 2017-12-23 15:06:47
Writing application : mkvmerge v18.0.0 (‘Apricity’) 64-bit
Writing library : libebml v1.3.5 + libmatroska v1.4.8
Cover : Yes
Attachments : cover_land.jpg / small_cover.jpg / small_cover_land.jpg / cover.jpg

Video
ID : 1
Format : AVC
Format/Info : Advanced Video Codec
Format profile : [email protected]
Format settings, CABAC : Yes
Format settings, RefFrames : 5 frames
Codec ID : V_MPEG4/ISO/AVC
Duration : 1 h 27 min
Bit rate : 4 510 kb/s
Width : 1 912 pixels
Height : 800 pixels
Display aspect ratio : 2.40:1
Frame rate mode : Constant
Frame rate : 23.976 (23976/1000) FPS
Color space : YUV
Chroma subsampling : 4:2:0
Bit depth : 8 bits
Scan type : Progressive
Bits/(Pixel*Frame) : 0.123
Stream size : 2.77 GiB (91%)
Title : Mayhem.2017.1080p.WEB-DL.DD5.1.SUBThai.x264.One2loadup.com
Language : English
Default : Yes
Forced : No
Color range : Limited
Color primaries : BT.709
Transfer characteristics : BT.709
Matrix coefficients : BT.709

Audio
ID : 2
Format : AC-3
Format/Info : Audio Coding 3
Format settings, Endianness : Big
Codec ID : A_AC3
Duration : 1 h 27 min
Bit rate mode : Constant
Bit rate : 384 kb/s
Channel(s) : 6 channels
Channel positions : Front: L C R, Side: L R, LFE
Sampling rate : 48.0 kHz
Frame rate : 31.250 FPS (1536 SPF)
Bit depth : 16 bits
Compression mode : Lossy
Delay relative to video : -42 ms
Stream size : 241 MiB (8%)
Title : AC3 5.1
Language : English
Service kind : Complete Main
Default : Yes
Forced : No

Text #1
ID : 3
Format : VobSub
Muxing mode : zlib
Codec ID : S_VOBSUB
Codec ID/Info : Picture based subtitle format used on DVDs
Duration : 1 h 23 min
Bit rate : 3 815 b/s
Count of elements : 1302
Stream size : 2.28 MiB (0%)
Title : Vobsub 480p
Language : Thai
Default : No
Forced : No

Text #2
ID : 4
Format : VobSub
Muxing mode : zlib
Codec ID : S_VOBSUB
Codec ID/Info : Picture based subtitle format used on DVDs
Duration : 1 h 23 min
Bit rate : 13.3 kb/s
Count of elements : 1302
Stream size : 7.91 MiB (0%)
Title : Vobsub 1080p
Language : Thai
Default : No
Forced : No

Text #3
ID : 5
Format : VobSub
Muxing mode : zlib
Codec ID : S_VOBSUB
Codec ID/Info : Picture based subtitle format used on DVDs
Duration : 1 h 23 min
Bit rate : 13.2 kb/s
Count of elements : 1302
Stream size : 7.89 MiB (0%)
Title : Vobsub 1080p yellow
Language : Thai
Default : No
Forced : No

Text #4
ID : 6
Format : PGS
Muxing mode : zlib
Codec ID : S_HDMV/PGS
Codec ID/Info : Picture based subtitle format used on BDs/HD-DVDs
Duration : 1 h 23 min
Bit rate : 59.5 kb/s
Count of elements : 2620
Stream size : 35.5 MiB (1%)
Title : PGS
Language : Thai
Default : No
Forced : No

Text #5
ID : 7
Format : PGS
Muxing mode : zlib
Codec ID : S_HDMV/PGS
Codec ID/Info : Picture based subtitle format used on BDs/HD-DVDs
Duration : 1 h 23 min
Bit rate : 59.5 kb/s
Count of elements : 2620
Stream size : 35.5 MiB (1%)
Title : PGS Yellow
Language : Thai
Default : No
Forced : No

Text #6
ID : 8
Format : UTF-8
Codec ID : S_TEXT/UTF8
Codec ID/Info : UTF-8 Plain Text
Duration : 1 h 22 min
Bit rate : 67 b/s
Count of elements : 1307
Stream size : 40.8 KiB (0%)
Title : Subrip
Language : English
Default : No
Forced : No

Text #7
ID : 9
Format : UTF-8
Codec ID : S_TEXT/UTF8
Codec ID/Info : UTF-8 Plain Text
Duration : 1 h 23 min
Bit rate : 182 b/s
Count of elements : 1310
Stream size : 112 KiB (0%)
Title : Subrip
Language : Thai
Default : No
Forced : No

Menu
00:00:00.000 : en:Chapter 1
00:10:20.787 : en:Chapter 2
00:20:07.623 : en:Chapter 3
00:31:52.244 : en:Chapter 4
00:39:52.766 : en:Chapter 5
00:50:12.844 : en:Chapter 6
01:00:07.396 : en:Chapter 7
01:10:06.703 : en:Chapter 8
01:23:50.443 : en:Chapter 9

DOWNLOAD


PART01 |||| PART02 |||| PART03 |||| PART04

PART01 |||| PART02 |||| PART03 |||| PART04

PART01 |||| PART02 |||| PART03 |||| PART04

PART01 |||| PART02 |||| PART03 |||| PART04

PART01 |||| PART02 |||| PART03 |||| PART04


Leave A Reply

อีเมล์ของคุณจะไม่แสดงให้เห็น Your email address will not be published.

%d bloggers like this: