[ฝรั่ง] Lyle, Lyle, Crocodile (2022) ไลล์ จระเข้ตัวพ่อ.. หัวใจล้อหล่อ [1080p] [พากย์อังกฤษ 5.1] [Soundtrack บรรยายไทย + อังกฤษ] [เสียงอังกฤษ + ซับไทย] [USERLOAD]

0

โหลดหนัง Lyle, Lyle, Crocodile (2022) ไลล์ จระเข้ตัวพ่อ.. หัวใจล้อหล่อ

Lyle, Lyle, Crocodile | October 7, 2022 (United States) Summary: Feature film based on the children's book about a crocodile that lives in New York City.
Countries: United StatesLanguages: English

เรื่องย่อ Lyle, Lyle, Crocodile (2022) ไลล์ จระเข้ตัวพ่อ.. หัวใจล้อหล่อ

เมื่อครอบครัวพริมม์ย้ายไปนิวยอร์กซิตี้ จอช ลูกชายของพวกเขา จำเป็นต้องปรับตัวให้เข้ากับโรงเรียนใหม่และเพื่อนใหม่ แต่แล้วทุกอย่างก็เปลี่ยนไปเมื่อเขาได้พบ “ไลล์” จระเข้ร้องเพลงได้! (ขับร้องเพลงโดย “ชอว์น เมนเดส”) ที่รักการอาบน้ำ ชอบทานคาเวียร์ และชื่นชอบเสียงดนตรีที่ไพเราะ ซึ่งอาศัยอยู่ที่ห้องใต้หลังคา ทั้งสองกลายเป็นเพื่อนรักกัน แต่เมื่อไลล์ถูกเพื่อนบ้านชั่วร้ายรังแกครอบครัวพริมม์จึงต้องร่วมมือกับ เฮ็คเตอร์ พี. วาเลนติ (นำแสดงโดย “ฮาเวียร์ บาเด็ม” นักแสดงรางวัลออสการ์) เจ้าของผู้เปี่ยมเสน่ห์ของไลล์ ในการแสดงให้โลกได้เห็นว่า พรสวรรค์อันยิ่งใหญ่ กำลังจะถูกค้นพบ กับจระเข้ร้องเพลงได้ตัวใหญ่ แถมมีหัวใจล้อหล่อ

Complete name : Lyle.Lyle.Crocodile.2022.1080p.WEB-DL.EAC3.x264.Subthai.One2load2up.com.mkv
Format : Matroska
Format version : Version 4
File size : 4.35 GiB
Duration : 1 h 46 min
Overall bit rate : 5 845 kb/s
Movie name : Lyle.Lyle.Crocodile.2022.1080p.WEB-DL.EAC3.x264.Subthai.One2load2up.com
Encoded date : UTC 2022-12-04 14:10:24
Writing application : mkvmerge v55.0.0 (‘Waiting For Space’) 64-bit
Writing library : libebml v1.4.2 + libmatroska v1.6.4

Video
ID : 1
Format : AVC
Format/Info : Advanced Video Codec
Format profile : [email protected]
Format settings : CABAC / 3 Ref Frames
Format settings, CABAC : Yes
Format settings, Reference : 3 frames
Codec ID : V_MPEG4/ISO/AVC
Duration : 1 h 46 min
Bit rate : 5 055 kb/s
Width : 1 918 pixels
Height : 802 pixels
Display aspect ratio : 2.40:1
Frame rate mode : Constant
Frame rate : 23.976 (24000/1001) FPS
Color space : YUV
Chroma subsampling : 4:2:0
Bit depth : 8 bits
Scan type : Progressive
Bits/(Pixel*Frame) : 0.137
Stream size : 3.76 GiB (86%)
Title : Lyle.Lyle.Crocodile.2022.1080p.WEB-DL.EAC3.x264.Subthai.One2load2up.com
Language : English
Default : Yes
Forced : No
Color range : Limited
Color primaries : BT.709
Transfer characteristics : BT.709
Matrix coefficients : BT.709

Audio
ID : 2
Format : E-AC-3 JOC
Format/Info : Enhanced AC-3 with Joint Object Coding
Commercial name : Dolby Digital Plus with Dolby Atmos
Codec ID : A_EAC3
Duration : 1 h 46 min
Bit rate mode : Constant
Bit rate : 768 kb/s
Channel(s) : 6 channels
Channel layout : L R C LFE Ls Rs
Sampling rate : 48.0 kHz
Frame rate : 31.250 FPS (1536 SPF)
Compression mode : Lossy
Stream size : 586 MiB (13%)
Title : E-AC3 Atmos English
Language : English
Service kind : Complete Main
Default : Yes
Forced : No
Complexity index : 16
Number of dynamic objects : 15
Bed channel count : 1 channel
Bed channel configuration : LFE

Text #1
ID : 3
Format : VobSub
Muxing mode : zlib
Codec ID : S_VOBSUB
Codec ID/Info : Picture based subtitle format used on DVDs
Duration : 1 h 45 min
Bit rate : 9 243 b/s
Count of elements : 1236
Stream size : 6.98 MiB (0%)
Title : Sub Thai 1080p
Language : Thai
Default : No
Forced : No

Text #2
ID : 4
Format : UTF-8
Codec ID : S_TEXT/UTF8
Codec ID/Info : UTF-8 Plain Text
Duration : 1 h 45 min
Bit rate : 99 b/s
Count of elements : 1236
Stream size : 76.6 KiB (0%)
Title : Sub Thai SRT
Language : Thai
Default : No
Forced : No

Text #3
ID : 5
Format : PGS
Muxing mode : zlib
Codec ID : S_HDMV/PGS
Codec ID/Info : Picture based subtitle format used on BDs/HD-DVDs
Duration : 1 h 45 min
Bit rate : 29.2 kb/s
Count of elements : 2472
Stream size : 22.1 MiB (0%)
Title : Sub Thai PGS
Language : Thai
Default : Yes
Forced : No

Text #4
ID : 6
Format : UTF-8
Codec ID : S_TEXT/UTF8
Codec ID/Info : UTF-8 Plain Text
Duration : 1 h 38 min
Bit rate : 51 b/s
Count of elements : 1249
Stream size : 37.5 KiB (0%)
Title : Sub English SRT
Language : English
Default : No
Forced : No

Menu
00:00:00.000 : en:Chapter 01
00:05:30.205 : en:Chapter 02
00:12:30.166 : en:Chapter 03
00:19:28.960 : en:Chapter 04
00:25:47.047 : en:Chapter 05
00:32:14.392 : en:Chapter 06
00:38:41.112 : en:Chapter 07
00:46:31.875 : en:Chapter 08
00:52:39.200 : en:Chapter 09
00:59:03.418 : en:Chapter 10
01:05:06.031 : en:Chapter 11
01:11:06.474 : en:Chapter 12
01:18:27.040 : en:Chapter 13
01:26:05.915 : en:Chapter 14
01:30:00.900 : en:Chapter 15
01:38:56.644 : en:Chapter 16

DOWNLOAD


PART01 |||| PART02 |||| PART03 |||| PART04 |||| PART05

PART01 |||| PART02 |||| PART03 |||| PART04 |||| PART05

PART01 |||| PART02 |||| PART03 |||| PART04 |||| PART05

PART01 |||| PART02 |||| PART03 |||| PART04 |||| PART05

PART01 |||| PART02 |||| PART03 |||| PART04 |||| PART05


Leave A Reply

อีเมล์ของคุณจะไม่แสดงให้เห็น Your email address will not be published.

%d bloggers like this: