[ฝรั่ง] Loving Vincent (2017) ภาพสุดท้ายของแวนโก๊ะ [1080p] [พากย์อังกฤษ 5.1] [Soundtrack บรรยายไทย] [เสียงอังกฤษ + ซับไทย] [OPENLOAD]

0

Loving Vincent (2017)

โหลดหนัง Loving Vincent (2017) ภาพสุดท้ายของแวนโก๊ะ

(2017) 1h 34min | Animation, Biography, Crime | 26 October 2017 (Netherlands) Summary: In a story depicted in oil painted animation, a young man comes to the last hometown of painter Vincent van Gogh to deliver the troubled artist's final letter and ends up investigating his final days there.
Countries: Poland, UK, USA, Switzerland, NetherlandsLanguages: English

เรื่องย่อ Loving Vincent (2017) ภาพสุดท้ายของแวนโก๊ะ

ภาพยนตร์เชิงชีวประวัติ ที่บอกเล่าเส้นทางชีวิตของศิลปินคนดัง “วินเซนต์ แวน โก๊ะ” หนึ่งในศิลปินชาวฮอลแลนด์ผู้ทรงอิทธิพลมากที่สุดคนหนึ่งของโลก เจ้าของเทคนิคภาพวาดที่เน้นการใช้สีน้ำมันกับจังหวะแปรงอันมีเอกลักษณ์ ซึ่งหนังเรื่องนี้ได้นำเอาเทคนิคการวาดภาพของแวนโก๊ะมาดัดแปลงและใช้ในหนังมากกว่า 65,000 เฟรม ทั้งยังใช้สีน้ำมันไปทั้งสิ้น 3,000 ลิตร และผ้าใบแคนวาสมากกว่า 1,000 ผืน

ภาพยนตร์อนิเมชั่นเชิงชีวประวัติมิติใหม่แห่งศตวรรษที่จะบอกเล่าเหตุการณ์การเสียชีวิตของ “วินเซนต์ แวนโก๊ะ” ศิลปินเจ้าของผลงานภาพเขียน, ศิลปะสมัยใหม่สุดอัศจรรย์ของโลก โดยสร้างจากจดหมายส่วนตัวจำนวน 800 ฉบับ และใช้เวลาในการบ่มเพาะยาวนานกว่า 7 ปี ถ่ายทอดเรื่องราวชีวประวัติอัครศิลปินเอกของโลกลงสู่แผ่นฟิล์มผ่านฝีมือ “ฮิวจ์ เวลช์แมน” ผู้กำกับชาวอังกฤษเจ้าของรางวัลออสการ์สาขา Best Short Film, Animated ปี 2006 จากเรื่อง Peter & The Wolf

Complete name : Loving.Vincent.2017.1080p.AC3.Subthai.One2loadup.com.mkv
Format : Matroska
Format version : Version 4
File size : 6.87 GiB
Duration : 1 h 31 min
Overall bit rate : 10.8 Mb/s
Movie name : Loving.Vincent.2017.1080p.AC3.Subthai.One2loadup.com
Encoded date : UTC 2018-08-03 11:12:47
Writing application : mkvmerge v7.8.0 (‘River Man’) 32bit built on Mar 27 2015 16:18:02
Writing library : libebml v1.3.1 + libmatroska v1.4.2

Video
ID : 1
Format : MPEG-4 Visual
Format profile : [email protected]
Format settings, BVOP : No
Format settings, QPel : No
Format settings, GMC : No warppoints
Format settings, Matrix : Default (H.263)
Codec ID : V_MS/VFW/FOURCC / DIVX
Codec ID/Info : Project Mayo
Codec ID/Hint : DivX 4
Duration : 1 h 31 min
Bit rate : 10.0 Mb/s
Width : 1 920 pixels
Height : 1 080 pixels
Display aspect ratio : 16:9
Frame rate mode : Constant
Frame rate : 25.000 FPS
Color space : YUV
Chroma subsampling : 4:2:0
Bit depth : 8 bits
Scan type : Progressive
Compression mode : Lossy
Bits/(Pixel*Frame) : 0.193
Stream size : 6.38 GiB (93%)
Title : Loving.Vincent.2017.1080p.AC3.Subthai.One2loadup.com
Writing library : Lavc52.37.0
Default : Yes
Forced : No

Audio #1
ID : 2
Format : AC-3
Format/Info : Audio Coding 3
Commercial name : Dolby Digital
Codec ID : A_AC3
Duration : 1 h 31 min
Bit rate mode : Constant
Bit rate : 384 kb/s
Channel(s) : 6 channels
Channel layout : L R C LFE Ls Rs
Sampling rate : 48.0 kHz
Frame rate : 31.250 FPS (1536 SPF)
Bit depth : 16 bits
Compression mode : Lossy
Stream size : 250 MiB (4%)
Language : English
Service kind : Complete Main
Default : Yes
Forced : No

Audio #2
ID : 3
Format : AC-3
Format/Info : Audio Coding 3
Commercial name : Dolby Digital
Codec ID : A_AC3
Duration : 1 h 31 min
Bit rate mode : Constant
Bit rate : 384 kb/s
Channel(s) : 6 channels
Channel layout : L R C LFE Ls Rs
Sampling rate : 48.0 kHz
Frame rate : 31.250 FPS (1536 SPF)
Bit depth : 16 bits
Compression mode : Lossy
Stream size : 250 MiB (4%)
Language : Italian
Service kind : Complete Main
Default : No
Forced : No

Text #1
ID : 4
Format : VobSub
Muxing mode : zlib
Codec ID : S_VOBSUB
Codec ID/Info : Picture based subtitle format used on DVDs
Duration : 1 h 29 min
Bit rate : 3 660 b/s
Count of elements : 1481
Stream size : 2.33 MiB (0%)
Language : English
Default : Yes
Forced : No

Text #2
ID : 5
Format : VobSub
Muxing mode : zlib
Codec ID : S_VOBSUB
Codec ID/Info : Picture based subtitle format used on DVDs
Duration : 1 h 23 min
Bit rate : 2 820 b/s
Count of elements : 1339
Stream size : 1.69 MiB (0%)
Language : Thai
Default : No
Forced : No

DOWNLOAD


PART01 |||| PART02 |||| PART03 |||| PART04 |||| PART05 |||| PART06 |||| PART07

PART01 |||| PART02 |||| PART03 |||| PART04 |||| PART05 |||| PART06 |||| PART07

PART01 |||| PART02 |||| PART03 |||| PART04 |||| PART05 |||| PART06 |||| PART07

PART01 |||| PART02 |||| PART03 |||| PART04 |||| PART05 |||| PART06 |||| PART07


Leave A Reply

Your email address will not be published.

%d bloggers like this: