[ฝรั่ง] Home Sweet Home Alone (2021) โดดเดี่ยวผู้น่ารัก [1080p] [พากย์ไทย 2.0 + เสียงอังกฤษ 5.1] [บรรยายไทย + อังกฤษ] [เสียงไทยมาสเตอร์ + ซับไทย] [USERLOAD]

0

โหลดหนัง Home Sweet Home Alone (2021) โดดเดี่ยวผู้น่ารัก

Summary:

เรื่องย่อ Home Sweet Home Alone (2021) โดดเดี่ยวผู้น่ารัก

แม็กซ์ เมอร์เซอร์ เด็กชายวัย 10 ขวบ ที่บังเอิญถูกครอบครัวทิ้งไว้ให้อยู่บ้านตามลำพังขณะที่ทุกคนไปเที่ยวญี่ปุ่นกัน ขณะที่แม็กซ์สนุกกับการได้ยึดครองบ้านแต่ผู้เดียว ก็ปรากฏว่ามีคุณสามีภรรยาจนตรอก (รับบทโดยเอลลี่ เคมเปอร์ และ ร็อบ เดลานีย์) บุกงัดเข้ามาในบ้านเพื่อจะขโมยมรดกที่ประเมินค่ามิได้ แม็กซ์จึงต้องใช้ความแสบของตัวเองในการปกป้องบ้าน!!!

Complete name : Home.Sweet.Home.Alone.2021.1080p.DSNP.WEB-DL.EAC3.x264.THM.One2loadup.com.mkv
Format : Matroska
Format version : Version 4
File size : 4.40 GiB
Duration : 1 h 33 min
Overall bit rate : 6 761 kb/s
Movie name : Home.Sweet.Home.Alone.2021.1080p.DSNP.WEB-DL.EAC3.x264.THM.One2loadup.com
Encoded date : UTC 2021-11-13 16:32:37
Writing application : mkvmerge v61.0.0 (‘So’) 64-bit
Writing library : libebml v1.4.2 + libmatroska v1.6.4
Cover : Yes
Attachments : cover

Video
ID : 1
Format : AVC
Format/Info : Advanced Video Codec
Format profile : [email protected]
Format settings : CABAC / 3 Ref Frames
Format settings, CABAC : Yes
Format settings, Reference : 3 frames
Codec ID : V_MPEG4/ISO/AVC
Duration : 1 h 33 min
Bit rate : 5 782 kb/s
Width : 1 920 pixels
Height : 1 080 pixels
Display aspect ratio : 16:9
Frame rate mode : Constant
Frame rate : 24.000 FPS
Color space : YUV
Chroma subsampling : 4:2:0
Bit depth : 8 bits
Scan type : Progressive
Bits/(Pixel*Frame) : 0.116
Stream size : 3.77 GiB (86%)
Title : Home.Sweet.Home.Alone.2021.1080p.DSNP.WEB-DL.EAC3.x264.THM.One2loadup.com
Language : English
Default : Yes
Forced : No
Color range : Limited
Color primaries : BT.709
Transfer characteristics : BT.709
Matrix coefficients : BT.709

Audio #1
ID : 2
Format : AAC LC
Format/Info : Advanced Audio Codec Low Complexity
Codec ID : A_AAC-2
Duration : 1 h 33 min
Bit rate : 192 kb/s
Channel(s) : 2 channels
Channel layout : L R
Sampling rate : 44.1 kHz
Frame rate : 43.066 FPS (1024 SPF)
Compression mode : Lossy
Stream size : 126 MiB (3%)
Title : Thai Master
Language : Thai
Default : Yes
Forced : No

Audio #2
ID : 3
Format : E-AC-3 JOC
Format/Info : Enhanced AC-3 with Joint Object Coding
Commercial name : Dolby Digital Plus with Dolby Atmos
Codec ID : A_EAC3
Duration : 1 h 33 min
Bit rate mode : Constant
Bit rate : 768 kb/s
Channel(s) : 6 channels
Channel layout : L R C LFE Ls Rs
Sampling rate : 48.0 kHz
Frame rate : 31.250 FPS (1536 SPF)
Compression mode : Lossy
Stream size : 512 MiB (11%)
Title : English 5.1
Language : English
Service kind : Complete Main
Default : No
Forced : No
Complexity index : 16
Number of dynamic objects : 15
Bed channel count : 1 channel
Bed channel configuration : LFE

Text #1
ID : 4
Format : PGS
Muxing mode : zlib
Codec ID : S_HDMV/PGS
Codec ID/Info : Picture based subtitle format used on BDs/HD-DVDs
Duration : 1 h 32 min
Bit rate : 39.1 kb/s
Count of elements : 2564
Stream size : 25.9 MiB (1%)
Title : Sub Thai PGS
Language : Thai
Default : Yes
Forced : No

Text #2
ID : 5
Format : UTF-8
Codec ID : S_TEXT/UTF8
Codec ID/Info : UTF-8 Plain Text
Duration : 1 h 24 min
Bit rate : 67 b/s
Count of elements : 1267
Stream size : 41.3 KiB (0%)
Title : Sub English SRT
Language : English
Default : No
Forced : No

Menu
01:25:00.250 : Chapter 1
01:25:10.125 : Credits
01:33:12.250 : Chapter 2

DOWNLOAD


PART01 |||| PART02 |||| PART03 |||| PART04 |||| PART05

PART01 |||| PART02 |||| PART03 |||| PART04 |||| PART05

PART01 |||| PART02 |||| PART03 |||| PART04 |||| PART05

PART01 |||| PART02 |||| PART03 |||| PART04 |||| PART05

PART01 |||| PART02 |||| PART03 |||| PART04 |||| PART05


Leave A Reply

อีเมล์ของคุณจะไม่แสดงให้เห็น Your email address will not be published.

%d bloggers like this: