[ฝรั่ง] Halloween Ends (2022) ปิดฉากฮาโลวีน [1080p] [พากย์อังกฤษ 5.1] [Soundtrack บรรยายไทย + อังกฤษ] [เสียงอังกฤษ + ซับไทย] [USERLOAD]

0

โหลดหนัง Halloween Ends (2022) ปิดฉากฮาโลวีน

Halloween Ends | October 14, 2022 (United States) Summary: The saga of Michael Myers and Laurie Strode comes to a spine-chilling climax in the final installment of this trilogy.
Countries: United States, United KingdomLanguages: English

เรื่องย่อ Halloween Ends (2022) ปิดฉากฮาโลวีน

สี่ปีหลังจากเหตุการณ์ใน Halloween Kills ลอรีอาศัยอยู่กับ Allyson หลานสาวของเธอและกำลังจะเสร็จสิ้นการเขียนบันทึกความทรงจำของเธอ Michael Myers ไม่ได้เห็นตั้งแต่นั้นมา ลอรีหลังจากปล่อยให้อสูรของไมเคิลกำหนดและขับเคลื่อนความเป็นจริงของเธอมานานหลายทศวรรษ ได้ตัดสินใจที่จะปลดปล่อยตัวเองจากความกลัวและความโกรธ และยอมรับชีวิต แต่เมื่อชายหนุ่มคนหนึ่ง คอรีย์ คันนิงแฮม ถูกกล่าวหาว่าฆ่าเด็กผู้ชายที่เขารับเลี้ยงเด็ก มันจุดชนวนให้เกิดความรุนแรงและความหวาดกลัว ซึ่งจะทำให้ลอรีต้องเผชิญหน้ากับความชั่วร้ายที่เธอควบคุมไม่ได้ในท้ายที่สุด

Complete name : Halloween.Ends.2022.1080p.WEB-DL.EAC3.x264.Subthai.One2loadup.com.mkv
Format : Matroska
Format version : Version 4
File size : 4.34 GiB
Duration : 1 h 50 min
Overall bit rate : 5 599 kb/s
Movie name : Halloween.Ends.2022.1080p.WEB-DL.EAC3.x264.Subthai.One2loadup.com
Encoded date : UTC 2022-10-15 12:11:00
Writing application : mkvmerge v55.0.0 (‘Waiting For Space’) 64-bit
Writing library : libebml v1.4.2 + libmatroska v1.6.4

Video
ID : 1
Format : AVC
Format/Info : Advanced Video Codec
Format profile : [email protected]
Format settings : CABAC / 3 Ref Frames
Format settings, CABAC : Yes
Format settings, Reference : 3 frames
Codec ID : V_MPEG4/ISO/AVC
Duration : 1 h 50 min
Bit rate : 5 193 kb/s
Width : 1 920 pixels
Height : 804 pixels
Display aspect ratio : 2.40:1
Frame rate mode : Constant
Frame rate : 23.976 (24000/1001) FPS
Color space : YUV
Chroma subsampling : 4:2:0
Bit depth : 8 bits
Scan type : Progressive
Bits/(Pixel*Frame) : 0.140
Stream size : 4.02 GiB (93%)
Title : Halloween.Ends.2022.1080p.WEB-DL.EAC3.x264.Subthai.One2loadup.com
Language : English
Default : Yes
Forced : No
Color range : Limited
Matrix coefficients : BT.709

Audio
ID : 2
Format : E-AC-3
Format/Info : Enhanced AC-3
Commercial name : Dolby Digital Plus
Codec ID : A_EAC3
Duration : 1 h 50 min
Bit rate mode : Constant
Bit rate : 384 kb/s
Channel(s) : 6 channels
Channel layout : L R C LFE Ls Rs
Sampling rate : 48.0 kHz
Frame rate : 31.250 FPS (1536 SPF)
Compression mode : Lossy
Stream size : 305 MiB (7%)
Title : E-AC3 English
Language : English
Service kind : Complete Main
Default : Yes
Forced : No

Text #1
ID : 3
Format : VobSub
Muxing mode : zlib
Codec ID : S_VOBSUB
Codec ID/Info : Picture based subtitle format used on DVDs
Duration : 1 h 45 min
Bit rate : 9 873 b/s
Count of elements : 1220
Stream size : 7.47 MiB (0%)
Title : Sub Thai 1080p
Language : Thai
Default : No
Forced : No

Text #2
ID : 4
Format : UTF-8
Codec ID : S_TEXT/UTF8
Codec ID/Info : UTF-8 Plain Text
Duration : 1 h 45 min
Bit rate : 101 b/s
Count of elements : 1220
Stream size : 78.4 KiB (0%)
Title : Sub Thai SRT
Language : Thai
Default : No
Forced : No

Text #3
ID : 5
Format : PGS
Muxing mode : zlib
Codec ID : S_HDMV/PGS
Codec ID/Info : Picture based subtitle format used on BDs/HD-DVDs
Duration : 1 h 45 min
Bit rate : 30.6 kb/s
Count of elements : 2440
Stream size : 23.1 MiB (1%)
Title : Sub Thai PGS
Language : Thai
Default : Yes
Forced : No

Text #4
ID : 6
Format : UTF-8
Codec ID : S_TEXT/UTF8
Codec ID/Info : UTF-8 Plain Text
Duration : 1 h 50 min
Bit rate : 60 b/s
Count of elements : 1802
Stream size : 49.4 KiB (0%)
Title : Sub English SRT
Language : English
Default : No
Forced : No

DOWNLOAD


PART01 |||| PART02 |||| PART03 |||| PART04 |||| PART05

PART01 |||| PART02 |||| PART03 |||| PART04 |||| PART05

PART01 |||| PART02 |||| PART03 |||| PART04 |||| PART05

PART01 |||| PART02 |||| PART03 |||| PART04 |||| PART05

PART01 |||| PART02 |||| PART03 |||| PART04 |||| PART05


Leave A Reply

อีเมล์ของคุณจะไม่แสดงให้เห็น Your email address will not be published.

%d bloggers like this: