[ฝรั่ง] Gretel & Hansel (2020) [1080p] [พากย์อังกฤษ 5.1] [Soundtrack บรรยายไทย + อังกฤษ] [เสียงอังกฤษ + ซับไทย] [PANDAFILE]

0

โหลดหนัง Gretel & Hansel (2020)

Gretel & Hansel (2020) 1h 27min | Fantasy, Horror, Mystery | 31 January 2020 (USA) Summary: A long time ago in a distant fairy tale countryside, a young girl leads her little brother into a dark wood in desperate search of food and work, only to stumble upon a nexus of terrifying evil.
Countries: Canada, USA, Ireland, South AfricaLanguages: English

เรื่องย่อ Gretel & Hansel (2020)

เรื่องเล่าสุดคลาสสิคของสองพี่น้อง Grim ที่เล่าเรื่องราวของพี่ชายและน้องสาวที่ต้องหนีออกมาจากบ้านหลังจากที่พ่อของทั้งคู่หลงเสน่ห์แม่เลี้ยงคนใหม่จนโงหัวไม่ขึ้นจนทำให้ทั้งสองต้องมาเจอกับแม่มดใจร้ายกินคนในป่านั่นเอง ซึ่งในหนังเวอร์ชันนี้มันก็จะมีความซื่อตรงกับต้นฉบับ และจะไม่เหมือนหนังแอ็กชันอย่าง Hansel & Gretel: Witch Hunters ที่เคยออกฉายมาก่อนหน้าอย่างแน่นอน

Complete name : Gretel.and.Hansel.2020.1080p.AMZN.WEB-DL.AC3.x264.Subthai.One2loadup.com.mkv
Format : Matroska
Format version : Version 4
File size : 3.55 GiB
Duration : 1 h 27 min
Overall bit rate : 5 815 kb/s
Movie name : Gretel.and.Hansel.2020.1080p.AMZN.WEB-DL.AC3.x264.Subthai.One2loadup.com
Encoded date : UTC 2020-07-13 15:24:37
Writing application : mkvmerge v48.0.0 (‘Fortress Around Your Heart’) 64-bit
Writing library : libebml v1.4.0 + libmatroska v1.6.0
Cover : Yes
Attachments : cover

Video
ID : 1
Format : AVC
Format/Info : Advanced Video Codec
Format profile : [email protected]
Format settings : CABAC / 4 Ref Frames
Format settings, CABAC : Yes
Format settings, ReFrames : 4 frames
Codec ID : V_MPEG4/ISO/AVC
Duration : 1 h 27 min
Bit rate mode : Constant
Bit rate : 5 147 kb/s
Nominal bit rate : 10 000 kb/s
Width : 1 920 pixels
Height : 1 040 pixels
Display aspect ratio : 1.85:1
Frame rate mode : Constant
Frame rate : 23.976 (24000/1001) FPS
Color space : YUV
Chroma subsampling : 4:2:0
Bit depth : 8 bits
Scan type : Progressive
Bits/(Pixel*Frame) : 0.108
Stream size : 3.14 GiB (89%)
Default : Yes
Forced : No
Color range : Limited
Color primaries : BT.709
Transfer characteristics : BT.709
Matrix coefficients : BT.709

Audio
ID : 2
Format : E-AC-3
Format/Info : Enhanced AC-3
Commercial name : Dolby Digital Plus
Codec ID : A_EAC3
Duration : 1 h 27 min
Bit rate mode : Constant
Bit rate : 640 kb/s
Channel(s) : 6 channels
Channel layout : L R C LFE Ls Rs
Sampling rate : 48.0 kHz
Frame rate : 31.250 FPS (1536 SPF)
Compression mode : Lossy
Stream size : 400 MiB (11%)
Language : English
Service kind : Complete Main
Default : Yes
Forced : No

Text #1
ID : 3
Format : PGS
Muxing mode : zlib
Codec ID : S_HDMV/PGS
Codec ID/Info : Picture based subtitle format used on BDs/HD-DVDs
Duration : 1 h 21 min
Bit rate : 35.9 kb/s
Count of elements : 1826
Stream size : 21.0 MiB (1%)
Language : English
Default : No
Forced : No

Text #2
ID : 4
Format : PGS
Muxing mode : zlib
Codec ID : S_HDMV/PGS
Codec ID/Info : Picture based subtitle format used on BDs/HD-DVDs
Duration : 1 h 21 min
Bit rate : 24.1 kb/s
Count of elements : 1476
Stream size : 14.1 MiB (0%)
Language : Thai
Default : Yes
Forced : No

DOWNLOAD


PART01 |||| PART02 |||| PART03 |||| PART04

PART01 |||| PART02 |||| PART03 |||| PART04

PART01 |||| PART02 |||| PART03 |||| PART04

PART01 |||| PART02 |||| PART03 |||| PART04

PART01 |||| PART02 |||| PART03 |||| PART04



Disable Comments
%d bloggers like this: