[ฝรั่ง] Ghosts of War (2020) โคตรผีดุแดนสงคราม [1080p] [พากย์ไทยโรง 2.0 + เสียงอังกฤษ 5.1] [บรรยายอังกฤษ +ไทย(แปล)] [เสียงไทยโรง + ซับไทยแปล] [PANDAFILE]

0

โหลดหนัง Ghosts of War (2020) โคตรผีดุแดนสงคราม

Ghosts of War (2020) 1h 34min | Horror, Thriller, War | 17 July 2020 (USA) Summary: Five American soldiers assigned to hold a French Chateau near the end of World War II. This unexpected respite quickly descends into madness when they encounter a supernatural enemy more terrifying than anything seen on the battlefield.
Countries: UKLanguages: English

เรื่องย่อ Ghosts of War (2020) โคตรผีดุแดนสงคราม

ปี 1944 ในช่วงที่การสู้รบระหว่างฝ่ายสัมพันธมิตรและนาซีกำลังถึงจุดแตกหัก ทหารอเมริกัน 5 นาย ได้รับภารกิจปกป้องคฤหาสน์เก่าแก่แห่งหนึ่งในฝรั่งเศส จากการโจมตีของนาซีเยอรมัน แต่พวกเขาต้องเจอกับเหตุการณ์ลึกลับ ชวนขวัญผวาที่พัวพันกับเรื่องราวเหนือธรรมชาติ กลายเป็นภารกิจสุดลุ้นระทึก ชวนขนหัวลุก… หรือข้าศึกที่แท้จริงไม่ได้อยู่ในสมรภูมิ

Complete name : Ghosts.of.War.2020.1080p.AMZN.WEB-DL.AC3.x264.THR.One2loadup.com.mkv
Format : Matroska
Format version : Version 4
File size : 5.57 GiB
Duration : 1 h 35 min
Overall bit rate : 8 395 kb/s
Movie name : Ghosts.of.War.2020.1080p.AMZN.WEB-DL.AC3.x264.THR.One2loadup.com
Encoded date : UTC 2020-12-15 06:25:12
Writing application : mkvmerge v51.0.0 (‘I Wish’) 64-bit
Writing library : libebml v1.4.0 + libmatroska v1.6.2

Video
ID : 1
Format : AVC
Format/Info : Advanced Video Codec
Format profile : [email protected]
Format settings : CABAC / 4 Ref Frames
Format settings, CABAC : Yes
Format settings, ReFrames : 4 frames
Codec ID : V_MPEG4/ISO/AVC
Duration : 1 h 35 min
Bit rate mode : Constant
Bit rate : 7 594 kb/s
Nominal bit rate : 10 000 kb/s
Width : 1 920 pixels
Height : 816 pixels
Display aspect ratio : 2.35:1
Frame rate mode : Constant
Frame rate : 23.976 (24000/1001) FPS
Color space : YUV
Chroma subsampling : 4:2:0
Bit depth : 8 bits
Scan type : Progressive
Bits/(Pixel*Frame) : 0.202
Stream size : 5.04 GiB (90%)
Title : Ghosts.of.War.2020.1080p.AMZN.WEB-DL.AC3.x264.THR.One2loadup.com
Language : English
Default : Yes
Forced : No
Color range : Limited
Color primaries : BT.709
Transfer characteristics : BT.709
Matrix coefficients : BT.709

Audio #1
ID : 2
Format : E-AC-3
Format/Info : Enhanced AC-3
Commercial name : Dolby Digital Plus
Codec ID : A_EAC3
Duration : 1 h 35 min
Bit rate mode : Constant
Bit rate : 640 kb/s
Channel(s) : 6 channels
Channel layout : L R C LFE Ls Rs
Sampling rate : 48.0 kHz
Frame rate : 31.250 FPS (1536 SPF)
Compression mode : Lossy
Stream size : 435 MiB (8%)
Title : AC-3 5.1
Language : English
Service kind : Complete Main
Default : Yes
Forced : No

Audio #2
ID : 3
Format : AAC LC
Format/Info : Advanced Audio Codec Low Complexity
Codec ID : A_AAC-2
Duration : 1 h 34 min
Bit rate : 140 kb/s
Channel(s) : 2 channels
Channel layout : L R
Sampling rate : 48.0 kHz
Frame rate : 46.875 FPS (1024 SPF)
Compression mode : Lossy
Delay relative to video : 3 s 500 ms
Stream size : 94.9 MiB (2%)
Title : THR 2.0
Language : Thai
Default : No
Forced : No

Text #1
ID : 4
Format : UTF-8
Codec ID : S_TEXT/UTF8
Codec ID/Info : UTF-8 Plain Text
Duration : 1 h 26 min
Bit rate : 36 b/s
Count of elements : 796
Stream size : 23.2 KiB (0%)
Title : SRT
Language : English
Default : Yes
Forced : No

Text #2
ID : 5
Format : PGS
Muxing mode : zlib
Codec ID : S_HDMV/PGS
Codec ID/Info : Picture based subtitle format used on BDs/HD-DVDs
Duration : 1 h 27 min
Bit rate : 22.8 kb/s
Count of elements : 1670
Stream size : 14.2 MiB (0%)
Title : PGS AS-NW
Language : Thai
Default : No
Forced : No

Text #3
ID : 6
Format : PGS
Muxing mode : zlib
Codec ID : S_HDMV/PGS
Codec ID/Info : Picture based subtitle format used on BDs/HD-DVDs
Duration : 1 h 27 min
Bit rate : 21.7 kb/s
Count of elements : 1670
Stream size : 13.6 MiB (0%)
Title : PGS SA-NW
Language : Thai
Default : No
Forced : No

DOWNLOAD


PART01 |||| PART02 |||| PART03 |||| PART04 |||| PART05 |||| PART06

PART01 |||| PART02 |||| PART03 |||| PART04 |||| PART05 |||| PART06

PART01 |||| PART02 |||| PART03 |||| PART04 |||| PART05 |||| PART06

PART01 |||| PART02 |||| PART03 |||| PART04 |||| PART05 |||| PART06

PART01 |||| PART02 |||| PART03 |||| PART04 |||| PART05 |||| PART06



แจ้งหนังเสีย หรือโหลดไม่ได้ ทั้งลิ้งฟรีและ vip สามารถกดที่รูปด้านบนนี้ได้เลย

: Disable Comments
%d bloggers like this: