[ฝรั่ง] Frozen II (2019) ผจญภัยปริศนาราชินีหิมะ ภาค 2 [1080p] [พากย์ไทย 2.0 + เสียงอังกฤษ 5.1] [บรรยายไทย + อังกฤษ] [เสียงไทยมาสเตอร์ + ซับไทย] [PANDAFILE]

0

โหลดหนัง Frozen II (2019) ผจญภัยปริศนาราชินีหิมะ ภาค 2

Summary:

เรื่องย่อ Frozen II (2019) ผจญภัยปริศนาราชินีหิมะ ภาค 2

ทำไมเอลซ่าถึงเกิดมาพร้อมกับพลังวิเศษ? คำตอบกำลังเรียกหาเธอและกำลังคุกคามอาณาจักรของเธอเธอจึงเริ่มการเดินทางสุดอันตรายแต่แฝงไว้ด้วยความน่าพิศวง ไปกับ อันนา, คริสตอฟฟ์, โอลาฟ และสเฟน ใน “โฟรเซ่น-ผจญภัยแดนคำสาปราชินีหิมะ” เอลซ่ากลัวว่าพลังของเธอรุนแรงไปสำหรับโลกใบนี้ “โฟรเซ่น 2 – ผจญภัยปริศนาราชินีหิมะ” เธอเพียงได้แค่หวังว่าพลังของเธอจะรุนแรงพอ จากทีมผู้สร้างเจ้าของรางวัลออสการ์ ผู้กำกับ เจนนิเฟอร์ ลี และคริส บัค ผู้อำนวยการสร้าง ปีเตอร์ เดล เวโค่ และผู้เขียนเพลง คริสเทน แอนเดอร์สัน-โลเปซ และโรเบิร์ต โลเปซ และนักแสดงผู้ให้เสียงพากย์ อิดิน่า เมนเซล คริสเทน เบลล์ โจนาธาน กรอฟฟ์, และ จอช แกด “โฟรเซ่น 2-ผจญภัยปริศนาราชินีหิมะ” จากวอลท์ ดิสนีย์ แอนิเมชั่น สตูดิโอส์!!!

Complete name : Frozen.II.2019.1080p.WEB-DL.AC3.x264.THM.One2loadup.com.mkv
Format : Matroska
Format version : Version 4
File size : 3.95 GiB
Duration : 1 h 43 min
Overall bit rate : 5 462 kb/s
Movie name : Frozen.II.2019.1080p.WEB-DL.AC3.x264.THM.One2loadup.com
Encoded date : UTC 2010-02-22 21:41:31
Writing application : mkvmerge v5.9.0 (‘On The Loose’) built on Dec 9 2012 15:37:01
Writing library : libebml v1.3.0 + libmatroska v1.4.0

Video
ID : 1
Format : AVC
Format/Info : Advanced Video Codec
Format profile : [email protected]
Format settings : CABAC / 5 Ref Frames
Format settings, CABAC : Yes
Format settings, ReFrames : 5 frames
Codec ID : V_MPEG4/ISO/AVC
Duration : 1 h 43 min
Bit rate : 4 585 kb/s
Width : 1 920 pixels
Height : 804 pixels
Display aspect ratio : 2.40:1
Frame rate mode : Constant
Frame rate : 24.000 FPS
Color space : YUV
Chroma subsampling : 4:2:0
Bit depth : 8 bits
Scan type : Progressive
Bits/(Pixel*Frame) : 0.124
Stream size : 3.32 GiB (84%)
Title : Frozen.II.2019.1080p.WEB-DL.AC3.x264.THM.One2loadup.com
Language : English
Default : Yes
Forced : No
Color range : Limited
Color primaries : BT.709
Transfer characteristics : BT.709
Matrix coefficients : BT.709

Audio #1
ID : 2
Format : AC-3
Format/Info : Audio Coding 3
Commercial name : Dolby Digital
Codec ID : A_AC3
Duration : 1 h 43 min
Bit rate mode : Constant
Bit rate : 384 kb/s
Channel(s) : 2 channels
Channel layout : L R
Sampling rate : 48.0 kHz
Frame rate : 31.250 FPS (1536 SPF)
Bit depth : 16 bits
Compression mode : Lossy
Stream size : 285 MiB (7%)
Title : Thai Master
Language : Thai
Service kind : Complete Main
Default : Yes
Forced : Yes

Audio #2
ID : 3
Format : AC-3
Format/Info : Audio Coding 3
Commercial name : Dolby Digital
Codec ID : A_AC3
Duration : 1 h 43 min
Bit rate mode : Constant
Bit rate : 384 kb/s
Channel(s) : 6 channels
Channel layout : L R C LFE Ls Rs
Sampling rate : 48.0 kHz
Frame rate : 31.250 FPS (1536 SPF)
Bit depth : 16 bits
Compression mode : Lossy
Stream size : 285 MiB (7%)
Title : English AC3 5.1
Language : English
Service kind : Complete Main
Default : No
Forced : No

Text #1
ID : 4
Format : VobSub
Codec ID : S_VOBSUB
Codec ID/Info : Picture based subtitle format used on DVDs
Title : Thai 720p
Language : Thai
Default : No
Forced : No

Text #2
ID : 5
Format : VobSub
Codec ID : S_VOBSUB
Codec ID/Info : Picture based subtitle format used on DVDs
Title : Thai 1080p
Language : Thai
Default : Yes
Forced : Yes

Text #3
ID : 6
Format : VobSub
Codec ID : S_VOBSUB
Codec ID/Info : Picture based subtitle format used on DVDs
Title : Thai 1080p Yellow
Language : Thai
Default : No
Forced : No

Text #4
ID : 7
Format : VobSub
Codec ID : S_VOBSUB
Codec ID/Info : Picture based subtitle format used on DVDs
Title : Thai 1080p Out
Language : Thai
Default : No
Forced : No

Text #5
ID : 8
Format : VobSub
Codec ID : S_VOBSUB
Codec ID/Info : Picture based subtitle format used on DVDs
Title : Thai 1080p BIG
Language : Thai
Default : No
Forced : No

Text #6
ID : 9
Format : VobSub
Codec ID : S_VOBSUB
Codec ID/Info : Picture based subtitle format used on DVDs
Title : Thai 1080p Out [BIG]
Language : Thai
Default : No
Forced : No

Text #7
ID : 10
Format : PGS
Codec ID : S_HDMV/PGS
Codec ID/Info : Picture based subtitle format used on BDs/HD-DVDs
Title : Thai PGS
Language : Thai
Default : No
Forced : No

Text #8
ID : 11
Format : PGS
Codec ID : S_HDMV/PGS
Codec ID/Info : Picture based subtitle format used on BDs/HD-DVDs
Title : Thai PGS Yellow
Language : Thai
Default : No
Forced : No

Text #9
ID : 12
Format : PGS
Codec ID : S_HDMV/PGS
Codec ID/Info : Picture based subtitle format used on BDs/HD-DVDs
Title : Thai PGS Out
Language : Thai
Default : No
Forced : No

Text #10
ID : 13
Format : PGS
Codec ID : S_HDMV/PGS
Codec ID/Info : Picture based subtitle format used on BDs/HD-DVDs
Title : English
Language : English
Default : No
Forced : No

Menu
00:00:00.000 : en:1
00:05:41.758 : en:2
00:08:26.881 : en:3
00:15:00.566 : en:4
00:16:28.820 : en:5
00:21:24.282 : en:6
00:25:44.417 : en:7
00:29:08.078 : en:8
00:33:44.186 : en:9
00:40:26.379 : en:10
00:44:37.087 : en:11
00:47:41.478 : en:12
00:53:03.675 : en:13
00:55:26.401 : en:14
01:02:35.872 : en:15
01:09:56.686 : en:16
01:13:47.540 : en:17
01:19:25.793 : en:18
01:24:27.302 : en:19
01:31:16.419 : en:20

DOWNLOAD


PART01 |||| PART02 |||| PART03 |||| PART04 |||| PART05

PART01 |||| PART02 |||| PART03 |||| PART04 |||| PART05

PART01 |||| PART02 |||| PART03 |||| PART04 |||| PART05

PART01 |||| PART02 |||| PART03 |||| PART04 |||| PART05

PART01 |||| PART02 |||| PART03 |||| PART04 |||| PART05


Disable Comments
%d bloggers like this: