[ฝรั่ง] Free Guy (2021) ขอสักทีพี่จะเป็นฮีโร่ [1080p] [พากย์อังกฤษ DTS] [Soundtrack บรรยายไทย + อังกฤษ] [เสียงอังกฤษ + ซับไทย] [USERLOAD]

0

โหลดหนัง Free Guy (2021) ขอสักทีพี่จะเป็นฮีโร่

Free Guy 115min | Action, Adventure, Comedy, Fantasy, Sci-Fi | August 13, 2021 (United States) Summary: A bank teller discovers that he's actually an NPC inside a brutal, open world video game.
Countries: United States, CanadaLanguages: English, Japanese, German

เรื่องย่อ Free Guy (2021) ขอสักทีพี่จะเป็นฮีโร่

เรื่องราวของพนักงานแบงค์ผู้โดดเดี่ยวที่ได้ค้นพบว่าจริง ๆ แล้วเขาเป็นตัวละครพื้นฐานในโลกของวิดีโอเกมที่เรียกว่า Free City เขาทำหน้าที่คอยขัดขวางผู้สร้างเกมที่กำลังจะจบมันพร้อมความช่วยเหลือของอวตารตัวหนึ่ง

Complete name : Free.Guy.2021.1080p.Blu-ray.DTS.x264.Subthai.One2loadup.com.mkv
Format : Matroska
Format version : Version 4
File size : 4.87 GiB
Duration : 1 h 54 min
Overall bit rate : 6 062 kb/s
Movie name : Free.Guy.2021.1080p.Blu-ray.DTS.x264.Subthai.One2loadup.com
Encoded date : UTC 2021-09-24 14:49:53
Writing application : mkvmerge v61.0.0 (‘So’) 64-bit
Writing library : libebml v1.4.2 + libmatroska v1.6.4

Video
ID : 1
Format : AVC
Format/Info : Advanced Video Codec
Format profile : [email protected]
Format settings : CABAC / 3 Ref Frames
Format settings, CABAC : Yes
Format settings, Reference : 3 frames
Codec ID : V_MPEG4/ISO/AVC
Duration : 1 h 54 min
Bit rate : 3 880 kb/s
Width : 1 920 pixels
Height : 804 pixels
Display aspect ratio : 2.40:1
Frame rate mode : Constant
Frame rate : 23.976 (24000/1001) FPS
Color space : YUV
Chroma subsampling : 4:2:0
Bit depth : 8 bits
Scan type : Progressive
Bits/(Pixel*Frame) : 0.105
Stream size : 3.12 GiB (64%)
Title : Free.Guy.2021.1080p.Blu-ray.DTS.x264.Subthai.One2loadup.com
Language : English
Default : Yes
Forced : No

Audio #1
ID : 2
Format : DTS
Format/Info : Digital Theater Systems
Codec ID : A_DTS
Duration : 1 h 54 min
Bit rate mode : Constant
Bit rate : 1 509 kb/s
Channel(s) : 6 channels
Channel layout : C L R Ls Rs LFE
Sampling rate : 48.0 kHz
Frame rate : 93.750 FPS (512 SPF)
Bit depth : 16 bits
Compression mode : Lossy
Stream size : 1.21 GiB (25%)
Title : DTS English
Language : English
Default : Yes
Forced : No

Audio #2
ID : 3
Format : AC-3
Format/Info : Audio Coding 3
Commercial name : Dolby Digital
Codec ID : A_AC3
Duration : 1 h 54 min
Bit rate mode : Constant
Bit rate : 640 kb/s
Channel(s) : 6 channels
Channel layout : L R C LFE Ls Rs
Sampling rate : 48.0 kHz
Frame rate : 31.250 FPS (1536 SPF)
Compression mode : Lossy
Stream size : 526 MiB (11%)
Title : AC-3 English
Language : English
Service kind : Complete Main
Default : No
Forced : No

Text #1
ID : 4
Format : VobSub
Muxing mode : zlib
Codec ID : S_VOBSUB
Codec ID/Info : Picture based subtitle format used on DVDs
Duration : 1 h 45 min
Bit rate : 17.2 kb/s
Count of elements : 1859
Stream size : 13.0 MiB (0%)
Title : Sub Thai 1080p
Language : Thai
Default : No
Forced : No

Text #2
ID : 5
Format : UTF-8
Codec ID : S_TEXT/UTF8
Codec ID/Info : UTF-8 Plain Text
Duration : 1 h 45 min
Bit rate : 176 b/s
Count of elements : 1859
Stream size : 137 KiB (0%)
Title : Sub Thai SRT
Language : Thai
Default : No
Forced : No

Text #3
ID : 6
Format : PGS
Muxing mode : zlib
Codec ID : S_HDMV/PGS
Codec ID/Info : Picture based subtitle format used on BDs/HD-DVDs
Duration : 1 h 45 min
Bit rate : 48.1 kb/s
Count of elements : 3718
Stream size : 36.3 MiB (1%)
Title : Sub Thai PGS
Language : Thai
Default : Yes
Forced : No

Text #4
ID : 7
Format : UTF-8
Codec ID : S_TEXT/UTF8
Codec ID/Info : UTF-8 Plain Text
Duration : 1 h 45 min
Bit rate : 80 b/s
Count of elements : 1902
Stream size : 62.4 KiB (0%)
Title : Sub English SRT
Language : English
Default : No
Forced : No

Menu
00:00:00.000 : Chapter 01
00:05:09.100 : Chapter 02
00:08:43.814 : Chapter 03
00:14:29.702 : Chapter 04
00:21:25.701 : Chapter 05
00:24:06.027 : Chapter 06
00:28:25.245 : Chapter 07
00:34:21.809 : Chapter 08
00:39:40.836 : Chapter 09
00:44:10.731 : Chapter 10
00:48:47.966 : Chapter 11
00:52:47.747 : Chapter 12
00:56:18.375 : Chapter 13
01:00:17.739 : Chapter 14
01:04:41.919 : Chapter 15
01:09:13.816 : Chapter 16
01:15:13.300 : Chapter 17
01:19:14.082 : Chapter 18
01:23:59.325 : Chapter 19
01:28:06.406 : Chapter 20
01:33:07.415 : Chapter 21
01:39:19.954 : Chapter 22
01:44:22.506 : Chapter 23
01:46:13.992 : Chapter 24

DOWNLOAD


PART01 |||| PART02 |||| PART03 |||| PART04 |||| PART05

PART01 |||| PART02 |||| PART03 |||| PART04 |||| PART05

PART01 |||| PART02 |||| PART03 |||| PART04 |||| PART05

PART01 |||| PART02 |||| PART03 |||| PART04 |||| PART05

PART01 |||| PART02 |||| PART03 |||| PART04 |||| PART05


Leave A Reply

อีเมล์ของคุณจะไม่แสดงให้เห็น Your email address will not be published.

%d bloggers like this: