[ฝรั่ง] Fast and Furious 9 F9: The Fast Saga (2021) เร็ว..แรงทะลุนรก 9 [1080p] [พากย์อังกฤษ 5.1] [Soundtrack บรรยายไทย + อังกฤษ] [เสียงอังกฤษ + ซับไทย] [USERLOAD]

2

โหลดหนัง Fast and Furious 9 F9: The Fast Saga (2021) เร็ว..แรงทะลุนรก 9

F9: The Fast Saga (2021) 143min | Action, Adventure, Crime, Thriller | June 25, 2021 (United States) Summary: Dom and the crew must take on an international terrorist who turns out to be Dom and Mia's estranged brother.
Countries: United States, Thailand, CanadaLanguages: English

เรื่องย่อ Fast and Furious 9 F9: The Fast Saga (2021) เร็ว..แรงทะลุนรก 9

ดอม โดมินิค ทอเร็ตโต้ (วิน ดีเซล) ปลีกตัวออกไปใช้ชีวิตอย่างเงียบ ๆ พร้อมกับเล็ตตี้และไบรอันลูกชายตัวน้อยแต่พวกเขารู้ว่าแม้จะอยู่ในดินแดนสงบสุข ก็ยังมีอันตรายอยู่คราวนี้ดอมต้องเผชิญหน้ากับตราบาปในอดีตของเขาหากเขาต้องการจะปกป้องชีวิตของคนที่เขารักมากที่สุดทีมนักซิ่งของเขากลับมารวมตัวกันอีกครั้งเพื่อหยุดการทำลายล้างโลกโดยนักฆ่าและนักซิ่งฝีมือฉกาจซึ่งเขาคือเจคอบน้องชายของดอม (จอห์น ซีนา)

Complete name : Fast.and.Furious.F9.The.Fast.Saga.2021.1080p.WEB-DL.EAC3.x264.Subthai.One2loadup.com.mkv
Format : Matroska
Format version : Version 4
File size : 4.87 GiB
Duration : 2 h 22 min
Overall bit rate : 4 879 kb/s
Movie name : Fast.and.Furious.F9.The.Fast.Saga.2021.1080p.WEB-DL.EAC3.x264.Subthai.One2loadup.com
Encoded date : UTC 2021-07-29 17:38:01
Writing application : mkvmerge v59.0.0 (‘Shining Star’) 64-bit
Writing library : libebml v1.4.2 + libmatroska v1.6.4

Video
ID : 1
Format : AVC
Format/Info : Advanced Video Codec
Format profile : [email protected]
Format settings : CABAC / 3 Ref Frames
Format settings, CABAC : Yes
Format settings, Reference : 3 frames
Codec ID : V_MPEG4/ISO/AVC
Duration : 2 h 22 min
Bit rate : 4 092 kb/s
Width : 1 920 pixels
Height : 800 pixels
Display aspect ratio : 2.40:1
Frame rate mode : Constant
Frame rate : 23.976 (24000/1001) FPS
Color space : YUV
Chroma subsampling : 4:2:0
Bit depth : 8 bits
Scan type : Progressive
Bits/(Pixel*Frame) : 0.111
Stream size : 4.08 GiB (84%)
Title : Fast.and.Furious.F9.The.Fast.Saga.2021.1080p.WEB-DL.EAC3.x264.Subthai.One2loadup.com
Language : English
Default : Yes
Forced : No
Color range : Limited
Color primaries : BT.709
Transfer characteristics : BT.709
Matrix coefficients : BT.709

Audio
ID : 2
Format : E-AC-3 JOC
Format/Info : Enhanced AC-3 with Joint Object Coding
Commercial name : Dolby Digital Plus with Dolby Atmos
Codec ID : A_EAC3
Duration : 2 h 22 min
Bit rate mode : Constant
Bit rate : 768 kb/s
Channel(s) : 6 channels
Channel layout : L R C LFE Ls Rs
Sampling rate : 48.0 kHz
Frame rate : 31.250 FPS (1536 SPF)
Compression mode : Lossy
Stream size : 785 MiB (16%)
Title : E-AC3 Atmos English
Language : English
Service kind : Complete Main
Default : Yes
Forced : No
Complexity index : 16
Number of dynamic objects : 15
Bed channel count : 1 channel
Bed channel configuration : LFE

Text #1
ID : 3
Format : VobSub
Muxing mode : zlib
Codec ID : S_VOBSUB
Codec ID/Info : Picture based subtitle format used on DVDs
Duration : 2 h 12 min
Bit rate : 9 226 b/s
Count of elements : 1351
Stream size : 8.72 MiB (0%)
Title : Sub Thai 1080p
Language : Thai
Default : No
Forced : No

Text #2
ID : 4
Format : UTF-8
Codec ID : S_TEXT/UTF8
Codec ID/Info : UTF-8 Plain Text
Duration : 2 h 12 min
Bit rate : 95 b/s
Count of elements : 1351
Stream size : 92.5 KiB (0%)
Title : Sub Thai SRT
Language : Thai
Default : No
Forced : No

Text #3
ID : 5
Format : PGS
Muxing mode : zlib
Codec ID : S_HDMV/PGS
Codec ID/Info : Picture based subtitle format used on BDs/HD-DVDs
Duration : 2 h 12 min
Bit rate : 26.2 kb/s
Count of elements : 2702
Stream size : 24.8 MiB (0%)
Title : Sub Thai PGS
Language : Thai
Default : Yes
Forced : No

Text #4
ID : 6
Format : UTF-8
Codec ID : S_TEXT/UTF8
Codec ID/Info : UTF-8 Plain Text
Duration : 2 h 17 min
Bit rate : 42 b/s
Count of elements : 1585
Stream size : 42.8 KiB (0%)
Title : Sub English SRT
Language : English
Default : No
Forced : No

DOWNLOAD


PART01 |||| PART02 |||| PART03 |||| PART04 |||| PART05

PART01 |||| PART02 |||| PART03 |||| PART04 |||| PART05

PART01 |||| PART02 |||| PART03 |||| PART04 |||| PART05

PART01 |||| PART02 |||| PART03 |||| PART04 |||| PART05

PART01 |||| PART02 |||| PART03 |||| PART04 |||| PART05


2 Comments
  1. Vagoals
    Vagoals says

    พากษ์ไทยมาเมื่อไรครับ

    1. Admin
      Admin says

      ไม่ทราบฮ๊ะ

Leave A Reply

อีเมล์ของคุณจะไม่แสดงให้เห็น Your email address will not be published.

%d bloggers like this: