[ฝรั่ง] Escape Room 2: No Way Out (2021) กักห้อง เกมโหด 2 : กลับสู่เกมสยอง [1080p] [พากย์อังกฤษ 5.1] [Soundtrack บรรยายไทย + อังกฤษ] [เสียงไทย + ซับไทย] [USERLOAD]

0

โหลดหนัง Escape Room 2: No Way Out (2021) กักห้อง เกมโหด 2 : กลับสู่เกมสยอง

Escape Room: Tournament of Champions 88min | Action, Adventure, Horror, Mystery, Sci-Fi, Thriller | July 16, 2021 (United States) Summary: Six people unwittingly find themselves locked in another series of escape rooms, slowly uncovering what they have in common to survive. Joining forces with two of the original survivors, the... Read all
Countries: United States, South AfricaLanguages: English

เรื่องย่อ Escape Room 2: No Way Out (2021) กักห้อง เกมโหด 2 : กลับสู่เกมสยอง

คนหกคนพบว่าตัวเองถูกขังอยู่ในห้องหลบหนีอีกชุดหนึ่ง โดยไม่ได้ตั้งใจ ค่อยๆ ค้นพบสิ่งที่พวกเขามีเหมือนกันเพื่อความอยู่รอด เข้าร่วมกองกำลังกับผู้รอดชีวิตดั้งเดิมสองคนในไม่ช้าพวกเขาก็พบว่าพวกเขาเคยเล่นเกมนี้มาก่อน

Complete name : Escape.Room.Tournament.of.Champions.2021.1080p.WEB-DL.EAC3.x264.Subthai.One2loadup.com.mkv
Format : Matroska
Format version : Version 4
File size : 4.65 GiB
Duration : 1 h 35 min
Overall bit rate : 6 954 kb/s
Movie name : Escape.Room.Tournament.of.Champions.2021.1080p.WEB-DL.EAC3.x264.Subthai.One2loadup.com
Encoded date : UTC 2021-09-08 11:52:31
Writing application : mkvmerge v45.0.0 (‘Heaven in Pennies’) 64-bit
Writing library : libebml v1.3.10 + libmatroska v1.5.2

Video
ID : 1
Format : AVC
Format/Info : Advanced Video Codec
Format profile : [email protected]
Format settings : CABAC / 5 Ref Frames
Format settings, CABAC : Yes
Format settings, Reference : 5 frames
Codec ID : V_MPEG4/ISO/AVC
Duration : 1 h 35 min
Bit rate : 6 568 kb/s
Width : 1 920 pixels
Height : 800 pixels
Display aspect ratio : 2.40:1
Frame rate mode : Constant
Frame rate : 23.976 (24000/1001) FPS
Color space : YUV
Chroma subsampling : 4:2:0
Bit depth : 8 bits
Scan type : Progressive
Bits/(Pixel*Frame) : 0.178
Stream size : 4.39 GiB (94%)
Title : Escape.Room.Tournament.of.Champions.2021.1080p.WEB-DL.EAC3.x264.Subthai.One2loadup.com
Default : Yes
Forced : No
Color range : Limited
Color primaries : BT.709
Transfer characteristics : BT.709
Matrix coefficients : BT.709

Audio
ID : 2
Format : AC-3
Format/Info : Audio Coding 3
Commercial name : Dolby Digital
Codec ID : A_AC3
Duration : 1 h 35 min
Bit rate mode : Constant
Bit rate : 384 kb/s
Channel(s) : 6 channels
Channel layout : L R C LFE Ls Rs
Sampling rate : 48.0 kHz
Frame rate : 31.250 FPS (1536 SPF)
Compression mode : Lossy
Stream size : 263 MiB (6%)
Title : English
Language : English
Service kind : Complete Main
Default : No
Forced : No

Text #1
ID : 3
Format : UTF-8
Codec ID : S_TEXT/UTF8
Codec ID/Info : UTF-8 Plain Text
Duration : 1 h 28 min
Bit rate : 149 b/s
Count of elements : 1332
Stream size : 97.2 KiB (0%)
Language : Thai
Default : Yes
Forced : Yes

Text #2
ID : 4
Format : UTF-8
Codec ID : S_TEXT/UTF8
Codec ID/Info : UTF-8 Plain Text
Duration : 1 h 28 min
Bit rate : 161 b/s
Count of elements : 1330
Stream size : 104 KiB (0%)
Title : Thai
Language : Thai
Default : No
Forced : No

Text #3
ID : 5
Format : UTF-8
Codec ID : S_TEXT/UTF8
Codec ID/Info : UTF-8 Plain Text
Duration : 1 h 28 min
Bit rate : 65 b/s
Count of elements : 1330
Stream size : 42.6 KiB (0%)
Title : English [SDH]
Language : English
Default : No
Forced : No

Text #4
ID : 6
Format : UTF-8
Codec ID : S_TEXT/UTF8
Codec ID/Info : UTF-8 Plain Text
Duration : 1 h 34 min
Bit rate : 50 b/s
Count of elements : 1288
Stream size : 35.2 KiB (0%)
Title : French
Language : French
Default : No
Forced : No

DOWNLOAD


PART01 |||| PART02 |||| PART03 |||| PART04 |||| PART05

PART01 |||| PART02 |||| PART03 |||| PART04 |||| PART05

PART01 |||| PART02 |||| PART03 |||| PART04 |||| PART05

PART01 |||| PART02 |||| PART03 |||| PART04 |||| PART05

PART01 |||| PART02 |||| PART03 |||| PART04 |||| PART05


Leave A Reply

อีเมล์ของคุณจะไม่แสดงให้เห็น Your email address will not be published.

%d bloggers like this: